<?xml version="1.0" standalone="no"?>
<!DOCTYPE svg PUBLIC "-//W3C//DTD SVG 1.1//EN" "http://www.w3.org/Graphics/SVG/1.1/DTD/svg11.dtd" >
<svg xmlns="http://www.w3.org/2000/svg" xmlns:xlink="http://www.w3.org/1999/xlink" version="1.1">
<metadata>
Created by FontForge 20201107 at Thu Aug 16 21:16:40 2007
 By Unknown
Copyright 1992, 1994, 1997, 2000, 2004 Adobe Systems Incorporated. All rights reserved. Protected by U.S. Patents D454,582. Myriad is either a registered trademark or a trademark of Adobe Systems Incorporated in the United States and/or other countries.
</metadata>
<defs>
<font id="MyriadPro-Light" horiz-adv-x="300" >
  <font-face 
    font-family="Myriad Pro"
    font-weight="300"
    font-stretch="normal"
    units-per-em="1000"
    panose-1="2 11 4 3 3 4 3 2 2 4"
    ascent="750"
    descent="-250"
    x-height="480"
    cap-height="674"
    bbox="-153 -250 1046 935"
    underline-thickness="50"
    underline-position="-100"
    stemh="39"
    stemv="48"
    unicode-range="U+0020-FB04"
  />
<missing-glyph horiz-adv-x="500" 
d="M0 0v700h500v-700h-500zM250 395l170 255h-340zM280 350l170 -255v510zM80 50h340l-170 255zM50 605v-510l170 255z" />
    <glyph glyph-name="f_f" unicode="ff" horiz-adv-x="542" 
d="M411 0h-47v441h-232v-441h-48v441h-69v39h69v19c0 75 17 134 54 171c25 25 60 39 104 39c31 0 58 -10 72 -19l-17 -37c-13 8 -36 16 -59 16c-84 0 -106 -73 -106 -165v-24h232v26c0 74 14 134 53 173c29 29 69 42 106 42c31 0 58 -8 72 -16l-15 -37c-13 7 -32 13 -61 13
c-89 0 -108 -82 -108 -174v-27h129v-39h-129v-441z" />
    <glyph glyph-name="f_f_i" unicode="ffi" horiz-adv-x="763" 
d="M658 688l-22 -37c-21 16 -57 30 -97 30c-101 0 -128 -80 -128 -173v-28h272v-480h-48v441h-224v-441h-48v441h-231v-441h-48v441h-69v39h69v23c0 62 16 122 55 163c26 26 64 43 110 43c33 0 68 -14 85 -24l-18 -37c-18 10 -45 21 -71 21c-33 0 -57 -11 -74 -30
c-30 -33 -39 -86 -39 -139v-20h231v31c0 123 58 210 185 210c41 0 88 -15 110 -33z" />
    <glyph glyph-name="f_f_j" unicode="ffj" horiz-adv-x="762" 
d="M658 688l-22 -37c-21 16 -57 30 -97 30c-101 0 -128 -80 -128 -173v-28h272v-447c0 -86 -10 -145 -51 -190c-35 -38 -95 -51 -127 -52l-6 39c42 2 78 15 100 40c25 30 36 68 36 195v376h-224v-441h-48v441h-231v-441h-48v441h-69v39h69v23c0 62 16 122 55 163
c26 26 64 43 110 43c33 0 68 -14 85 -24l-18 -37c-18 10 -45 21 -71 21c-33 0 -57 -11 -74 -30c-30 -33 -39 -86 -39 -139v-20h231v31c0 123 58 210 185 210c41 0 88 -15 110 -33z" />
    <glyph glyph-name="f_f_l" unicode="ffl" horiz-adv-x="763" 
d="M334 688l-19 -37c-20 11 -45 18 -69 18c-33 0 -57 -11 -75 -30c-29 -32 -39 -83 -39 -138v-21h231v21c0 76 21 135 65 175c32 28 75 45 136 45c46 0 90 -11 119 -26v-695h-48v666c-17 9 -42 15 -81 15c-110 0 -143 -82 -143 -173v-28h128v-39h-128v-441h-48v441h-231
v-441h-48v441h-69v39h69v14c0 62 11 128 54 172c26 26 63 43 112 43c35 0 69 -13 84 -21z" />
    <glyph glyph-name="f_i" unicode="fi" horiz-adv-x="484" 
d="M132 0h-48v441h-69v39h69v31c0 123 58 210 184 210c41 0 88 -15 110 -33l-22 -37c-21 16 -57 30 -97 30c-100 0 -127 -80 -127 -173v-28h271v-480h-48v441h-223v-441z" />
    <glyph glyph-name="f_j" unicode="fj" horiz-adv-x="483" 
d="M132 0h-48v441h-69v39h69v31c0 123 58 210 184 210c41 0 88 -15 110 -33l-22 -37c-21 16 -57 30 -97 30c-100 0 -127 -80 -127 -173v-28h271v-447c0 -86 -10 -145 -51 -190c-35 -38 -95 -51 -126 -52l-6 39c41 2 77 15 99 40c25 30 36 68 36 195v376h-223v-441z" />
    <glyph glyph-name="f_l" unicode="fl" horiz-adv-x="484" 
d="M132 0h-48v441h-69v39h69v21c0 76 21 135 65 175c31 28 74 45 136 45c45 0 89 -11 118 -26v-695h-48v666c-17 9 -42 15 -81 15c-109 0 -142 -82 -142 -173v-28h128v-39h-128v-441z" />
    <glyph glyph-name=".notdef" horiz-adv-x="500" 
d="M0 0v700h500v-700h-500zM250 395l170 255h-340zM280 350l170 -255v510zM80 50h340l-170 255zM50 605v-510l170 255z" />
    <glyph glyph-name="space" unicode=" " horiz-adv-x="219" 
 />
    <glyph glyph-name="exclam" unicode="!" horiz-adv-x="207" 
d="M123 177h-40l-9 497h58zM102 -11c-23 0 -40 20 -39 44c0 26 17 45 41 45s40 -19 40 -45c0 -24 -16 -44 -42 -44z" />
    <glyph glyph-name="quotedbl" unicode="&#x22;" horiz-adv-x="301" 
d="M60 692h57l-12 -221h-32zM183 692h57l-12 -221h-32z" />
    <glyph glyph-name="numbersign" unicode="#" horiz-adv-x="465" 
d="M167 245h112l20 165h-112zM136 0h-42l26 206h-83v39h88l21 165h-88v38h93l26 202h41l-26 -202h113l26 202h40l-25 -202h83v-38h-88l-21 -165h89v-38h-94l-26 -207h-41l26 207h-112z" />
    <glyph glyph-name="dollar" unicode="$" horiz-adv-x="488" 
d="M255 -84h-41v103c-53 0 -108 18 -142 45l21 37c31 -25 79 -43 129 -43c80 0 133 52 133 120c0 65 -43 105 -117 138c-99 43 -156 87 -156 168c0 80 57 139 139 151v104h41v-103c55 -2 94 -19 120 -37l-21 -37c-18 13 -57 35 -115 35c-85 0 -119 -57 -119 -105
c0 -63 38 -92 126 -131c93 -43 148 -92 148 -179c0 -74 -50 -147 -146 -162v-104z" />
    <glyph glyph-name="percent" unicode="%" horiz-adv-x="737" 
d="M175 661c76 0 134 -62 134 -194c0 -138 -64 -204 -140 -204c-70 0 -135 60 -137 195c0 140 71 203 143 203zM170 627c-60 0 -95 -74 -95 -165c-2 -92 34 -165 95 -165c68 0 96 74 96 167c0 88 -26 163 -96 163zM193 -13h-39l388 676h39zM571 392c76 0 134 -62 134 -194
c0 -138 -64 -204 -140 -204c-70 0 -135 60 -137 195c0 140 71 203 143 203zM566 358c-60 0 -95 -74 -95 -165c-2 -92 35 -165 95 -165c68 0 96 74 96 167c0 88 -26 163 -96 163z" />
    <glyph glyph-name="ampersand" unicode="&#x26;" horiz-adv-x="560" 
d="M559 0h-59c-22 22 -42 44 -74 77c-68 -66 -134 -88 -205 -88c-111 0 -190 83 -190 188c0 94 58 156 133 199v3c-37 51 -58 100 -58 148c0 81 54 159 152 159c72 0 129 -52 129 -134c0 -72 -42 -127 -158 -184v-3c69 -81 146 -169 197 -226c33 50 54 117 69 217h45
c-18 -108 -43 -190 -88 -244c35 -36 67 -70 107 -112zM233 28c69 0 127 32 166 77c-38 46 -126 141 -213 242c-42 -25 -108 -76 -108 -164c0 -90 65 -155 155 -155zM250 648c-65 0 -99 -55 -99 -116c0 -57 27 -99 55 -137c81 43 136 84 136 153c0 48 -26 100 -92 100z" />
    <glyph glyph-name="quoteright" unicode="&#x2019;" horiz-adv-x="174" 
d="M92 682l59 10c-18 -75 -61 -189 -77 -217l-34 -5c16 42 43 150 52 212z" />
    <glyph glyph-name="parenleft" unicode="(" horiz-adv-x="265" 
d="M208 696h45c-83 -103 -140 -229 -140 -413c0 -179 60 -303 140 -407h-45c-69 86 -141 212 -141 408c0 198 72 324 141 412z" />
    <glyph glyph-name="parenright" unicode=")" horiz-adv-x="265" 
d="M57 -124h-45c80 103 140 229 140 411c0 181 -59 305 -140 409h45c69 -86 141 -212 141 -410c0 -197 -72 -322 -141 -410z" />
    <glyph glyph-name="asterisk" unicode="*" horiz-adv-x="391" 
d="M259 686l44 -25l-88 -123v-2l146 12v-47l-145 13v-3l88 -118l-46 -26l-63 131h-2l-69 -132l-39 26l87 120v3l-142 -14v47l141 -11v2l-86 120l44 26l65 -131h2z" />
    <glyph glyph-name="plus" unicode="+" horiz-adv-x="596" 
d="M277 532h43v-245h236v-40h-236v-247h-43v247h-236v40h236v245z" />
    <glyph glyph-name="comma" unicode="," horiz-adv-x="174" 
d="M64 -121l-38 -5c16 42 43 150 52 212l63 10c-18 -75 -61 -189 -77 -217z" />
    <glyph glyph-name="hyphen" unicode="-" horiz-adv-x="298" 
d="M30 296h238v-42h-238v42z" />
    <glyph glyph-name="period" unicode="." horiz-adv-x="174" 
d="M93 -11c-23 0 -40 21 -39 45c0 26 17 45 41 45s40 -19 40 -45c0 -24 -16 -45 -42 -45z" />
    <glyph glyph-name="slash" unicode="/" horiz-adv-x="351" 
d="M35 -39h-46l318 725h49z" />
    <glyph glyph-name="zero" unicode="0" horiz-adv-x="488" 
d="M251 661c114 0 198 -103 198 -327c0 -233 -83 -345 -213 -345c-102 0 -195 100 -198 333c0 236 103 339 213 339zM243 621c-89 0 -156 -108 -156 -300c0 -181 62 -292 155 -292c109 0 158 123 158 300c0 170 -46 292 -157 292z" />
    <glyph glyph-name="one" unicode="1" horiz-adv-x="488" 
d="M236 0v601h-2l-106 -62l-12 38l123 73h44v-650h-47z" />
    <glyph glyph-name="two" unicode="2" horiz-adv-x="488" 
d="M433 0h-387v30l60 62c181 177 260 268 260 380c0 74 -31 147 -141 147c-62 0 -110 -32 -138 -56l-19 33c42 38 99 65 166 65c135 0 181 -102 181 -179c0 -128 -93 -231 -256 -392l-46 -47v-2h320v-41z" />
    <glyph glyph-name="three" unicode="3" horiz-adv-x="488" 
d="M46 33l19 38c23 -17 78 -41 140 -41c133 0 165 92 164 150c-1 109 -95 153 -192 153h-41v40h44c72 0 163 41 163 131c0 60 -34 116 -126 116c-50 0 -97 -23 -126 -45l-19 35c31 25 90 51 151 51c123 0 169 -77 169 -151c0 -66 -42 -124 -121 -154v-2
c81 -16 147 -78 147 -172c0 -97 -69 -193 -219 -193c-66 0 -125 23 -153 44z" />
    <glyph glyph-name="four" unicode="4" horiz-adv-x="488" 
d="M366 0h-46v191h-310v32l317 427h39v-419h99v-40h-99v-191zM67 231h253v263c0 31 1 61 3 90l-3 1c-20 -37 -35 -59 -51 -82l-202 -270v-2z" />
    <glyph glyph-name="five" unicode="5" horiz-adv-x="488" 
d="M406 650v-42h-245l-32 -208c15 2 31 4 60 4c43 0 83 -8 121 -28c51 -25 101 -83 101 -169c0 -130 -99 -218 -219 -218c-67 0 -122 21 -150 42l19 38c25 -17 74 -39 134 -39c94 0 169 70 168 168c-1 94 -59 165 -188 165c-39 0 -70 -3 -93 -7l42 294h282z" />
    <glyph glyph-name="six" unicode="6" horiz-adv-x="488" 
d="M391 661v-44c-19 0 -44 -1 -71 -7c-140 -29 -220 -149 -233 -277h2c30 48 89 91 169 91c119 0 193 -88 193 -209c0 -113 -70 -226 -202 -226c-117 0 -212 95 -212 273c0 131 46 232 107 295c46 49 111 83 182 96c24 6 48 8 65 8zM252 29c88 0 150 72 150 182
c0 114 -67 172 -156 172c-61 0 -120 -37 -150 -94c-6 -11 -11 -24 -11 -38c0 -131 59 -222 167 -222z" />
    <glyph glyph-name="seven" unicode="7" horiz-adv-x="488" 
d="M62 650h380v-35l-293 -615h-47l290 607v2h-330v41z" />
    <glyph glyph-name="eight" unicode="8" horiz-adv-x="488" 
d="M177 343l-1 4c-79 34 -110 91 -110 147c0 98 80 167 185 167c109 0 173 -73 173 -156c0 -54 -26 -116 -115 -156v-4c92 -36 138 -97 138 -172c0 -110 -96 -184 -204 -184c-116 0 -202 74 -202 173c0 84 51 145 136 181zM243 29c95 0 155 58 155 137
c0 92 -62 133 -167 163c-92 -27 -141 -86 -141 -157c-4 -77 54 -143 153 -143zM246 622c-86 0 -133 -56 -133 -121c-1 -78 55 -117 143 -139c69 24 119 68 119 139c0 59 -36 121 -129 121z" />
    <glyph glyph-name="nine" unicode="9" horiz-adv-x="488" 
d="M100 -11v44c19 -2 44 0 74 5c53 9 102 34 142 76c42 46 75 112 88 206l-3 -1c-41 -53 -99 -84 -168 -84c-122 0 -186 95 -186 197c0 120 82 229 209 229c111 0 196 -95 196 -271c0 -147 -52 -248 -112 -308c-42 -44 -101 -74 -152 -84c-35 -7 -66 -10 -88 -9zM246 621
c-89 0 -151 -79 -151 -186c0 -96 60 -159 146 -159c69 0 126 36 155 84c4 8 8 17 8 29c0 137 -51 232 -158 232z" />
    <glyph glyph-name="colon" unicode=":" horiz-adv-x="174" 
d="M93 361c-23 0 -40 21 -39 45c0 26 17 45 41 45s40 -19 40 -45c0 -24 -16 -45 -42 -45zM93 -11c-23 0 -40 21 -39 45c0 26 17 45 41 45s40 -19 40 -45c0 -24 -16 -45 -42 -45z" />
    <glyph glyph-name="semicolon" unicode=";" horiz-adv-x="174" 
d="M64 -121l-38 -5c16 42 43 150 52 212l62 10c-17 -75 -60 -189 -76 -217zM102 361c-23 0 -40 21 -39 45c0 26 17 45 41 45s40 -19 40 -45c0 -24 -16 -45 -42 -45z" />
    <glyph glyph-name="less" unicode="&#x3c;" horiz-adv-x="596" 
d="M71 249v35l454 248v-46l-408 -219v-2l408 -218v-47z" />
    <glyph glyph-name="equal" unicode="=" horiz-adv-x="596" 
d="M556 345h-516v40h516v-40zM556 155h-516v40h516v-40z" />
    <glyph glyph-name="greater" unicode="&#x3e;" horiz-adv-x="596" 
d="M525 284v-35l-454 -249v47l408 218v2l-408 219v46z" />
    <glyph glyph-name="question" unicode="?" horiz-adv-x="381" 
d="M188 175h-45l-3 26c-8 55 12 119 64 183c53 62 77 105 77 157c0 61 -37 102 -109 102c-37 0 -77 -12 -102 -32l-18 35c33 26 87 40 129 40c104 0 151 -70 151 -142c0 -62 -32 -112 -86 -177c-49 -60 -65 -107 -60 -162zM163 -11c-23 0 -40 21 -39 45c0 26 17 45 41 45
s40 -19 40 -45c0 -24 -16 -45 -42 -45z" />
    <glyph glyph-name="at" unicode="@" horiz-adv-x="717" 
d="M451 258l26 124c-12 5 -32 10 -62 10c-102 0 -185 -94 -185 -205c0 -48 26 -84 77 -84c70 0 132 91 144 155zM496 -28l14 -35c-52 -30 -110 -42 -174 -42c-163 0 -298 121 -298 312c0 207 140 386 360 386c173 0 283 -123 283 -289c0 -153 -85 -238 -170 -238
c-35 0 -74 27 -67 94h-4c-38 -64 -85 -94 -149 -94c-54 0 -105 46 -105 122c0 126 103 241 238 241c42 0 74 -8 100 -19l-36 -179c-18 -87 -4 -127 33 -127c56 -2 115 75 115 191c0 155 -89 261 -245 261c-169 0 -308 -135 -308 -346c0 -166 111 -276 258 -276
c61 0 114 13 155 38z" />
    <glyph glyph-name="A" unicode="A" horiz-adv-x="585" 
d="M428 236h-266l-83 -236h-49l244 674h46l242 -674h-49zM177 276h237l-82 225c-17 47 -26 81 -35 119h-3c-9 -39 -20 -74 -35 -117z" />
    <glyph glyph-name="B" unicode="B" horiz-adv-x="505" 
d="M81 1v663c38 9 86 15 136 15c84 0 139 -18 176 -56c28 -27 42 -63 42 -110c0 -69 -49 -127 -116 -150v-3c57 -13 143 -62 143 -172c0 -55 -20 -97 -50 -129c-45 -45 -118 -64 -214 -64c-51 0 -90 4 -117 6zM129 632v-254h98c98 0 159 58 159 132c0 95 -72 129 -172 129
c-44 0 -70 -3 -85 -7zM129 339v-299c20 -4 47 -5 83 -5c103 0 200 37 200 152c0 106 -91 152 -198 152h-85z" />
    <glyph glyph-name="C" unicode="C" horiz-adv-x="570" 
d="M524 62l14 -38c-34 -17 -99 -34 -182 -34c-163 0 -319 104 -319 343c0 200 129 352 342 352c86 0 136 -19 156 -30l-15 -40c-34 17 -83 29 -140 29c-182 0 -293 -118 -293 -312c0 -183 104 -301 285 -301c57 0 113 12 152 31z" />
    <glyph glyph-name="D" unicode="D" horiz-adv-x="647" 
d="M81 1v663c52 9 109 15 173 15c123 0 216 -33 272 -92c54 -56 84 -132 84 -234c0 -99 -27 -188 -88 -255c-59 -65 -161 -103 -291 -103c-52 0 -101 1 -150 6zM129 628v-588c27 -4 66 -5 109 -5c216 0 323 121 323 316c2 171 -93 288 -310 288c-52 0 -93 -5 -122 -11z" />
    <glyph glyph-name="E" unicode="E" horiz-adv-x="466" 
d="M398 375v-40h-269v-295h301v-40h-349v674h333v-40h-285v-259h269z" />
    <glyph glyph-name="F" unicode="F" horiz-adv-x="462" 
d="M81 0v674h333v-40h-285v-268h262v-40h-262v-326h-48z" />
    <glyph glyph-name="G" unicode="G" horiz-adv-x="624" 
d="M565 334v-304c-34 -14 -105 -37 -197 -37c-89 0 -170 23 -238 88c-56 55 -93 146 -93 254c0 187 123 346 352 346c72 0 131 -17 157 -30l-16 -40c-35 17 -79 29 -144 29c-185 0 -299 -120 -299 -303c0 -190 111 -303 289 -303c71 0 116 10 141 23v238h-156v39h204z" />
    <glyph glyph-name="H" unicode="H" horiz-adv-x="630" 
d="M81 674h48v-297h372v297h48v-674h-48v337h-372v-337h-48v674z" />
    <glyph glyph-name="I" unicode="I" horiz-adv-x="211" 
d="M81 674h48v-674h-48v674z" />
    <glyph glyph-name="J" unicode="J" horiz-adv-x="345" 
d="M223 219v455h48v-466c0 -172 -86 -219 -182 -219c-31 0 -65 8 -82 16l10 38c17 -7 41 -13 71 -13c86 0 135 39 135 189z" />
    <glyph glyph-name="K" unicode="K" horiz-adv-x="498" 
d="M81 0v674h48v-341h3c20 26 40 49 58 70l239 271h58l-256 -286l280 -388h-57l-256 355l-69 -76v-279h-48z" />
    <glyph glyph-name="L" unicode="L" horiz-adv-x="448" 
d="M81 0v674h48v-634h300v-40h-348z" />
    <glyph glyph-name="M" unicode="M" horiz-adv-x="778" 
d="M670 0l-20 320c-6 101 -14 225 -14 298h-2c-25 -73 -52 -151 -91 -251l-142 -367h-33l-133 358c-38 105 -67 186 -87 260h-2c-2 -79 -7 -196 -15 -308l-21 -310h-47l49 674h55l145 -388c32 -86 55 -154 74 -219h3c17 62 41 128 75 218l151 389h57l45 -674h-47z" />
    <glyph glyph-name="N" unicode="N" horiz-adv-x="638" 
d="M128 0h-46v674h45l262 -398c55 -84 94 -147 127 -212l2 1c-7 91 -8 168 -8 274v335h46v-674h-44l-257 392c-50 78 -96 149 -131 218l-2 -1c5 -83 6 -156 6 -268v-341z" />
    <glyph glyph-name="O" unicode="O" horiz-adv-x="671" 
d="M340 686c170 0 294 -133 294 -342c0 -238 -146 -355 -302 -355c-166 0 -295 131 -295 342c0 221 134 355 303 355zM337 646c-171 0 -250 -156 -250 -314c0 -152 88 -303 248 -303s249 145 249 312c0 143 -78 305 -247 305z" />
    <glyph glyph-name="P" unicode="P" horiz-adv-x="502" 
d="M81 0v666c39 7 88 13 145 13c80 0 141 -21 178 -57c33 -31 52 -76 52 -132c0 -58 -16 -101 -47 -135c-43 -49 -115 -75 -198 -75c-31 0 -58 1 -82 8v-288h-48zM129 631v-301c23 -8 53 -10 86 -10c121 0 193 58 193 165c0 106 -77 154 -184 154c-44 0 -77 -4 -95 -8z" />
    <glyph glyph-name="Q" unicode="Q" horiz-adv-x="671" 
d="M641 -44l-15 -44c-88 21 -183 47 -253 68c-14 4 -26 9 -38 9c-165 4 -298 125 -298 341c0 225 134 356 304 356c169 0 293 -133 293 -342c0 -186 -86 -298 -213 -338v-4c76 -17 159 -36 220 -46zM334 29c160 0 250 145 250 312c0 143 -78 305 -245 305
c-173 0 -252 -158 -252 -315c0 -153 89 -302 247 -302z" />
    <glyph glyph-name="R" unicode="R" horiz-adv-x="505" 
d="M81 0v664c42 10 99 15 146 15c88 0 144 -19 182 -57c29 -27 47 -72 47 -119c0 -91 -54 -149 -132 -176v-2c54 -17 88 -68 104 -143c23 -105 36 -155 50 -182h-49c-11 20 -25 79 -43 164c-21 97 -63 141 -152 145h-105v-309h-48zM129 631v-283h107c104 0 172 58 172 147
c0 103 -76 145 -182 145c-46 0 -80 -5 -97 -9z" />
    <glyph glyph-name="S" unicode="S" horiz-adv-x="464" 
d="M42 35l18 39c38 -26 91 -44 147 -44c101 0 163 57 163 140c0 76 -39 120 -137 158c-108 38 -173 94 -173 186c0 99 81 171 196 171c63 0 111 -16 134 -32l-18 -40c-18 13 -61 32 -119 32c-109 0 -146 -70 -146 -123c0 -75 43 -113 140 -151c111 -45 170 -95 170 -196
c0 -98 -70 -186 -214 -186c-58 0 -126 19 -161 46z" />
    <glyph glyph-name="T" unicode="T" horiz-adv-x="465" 
d="M209 0v634h-220v40h488v-40h-220v-634h-48z" />
    <glyph glyph-name="U" unicode="U" horiz-adv-x="626" 
d="M81 674h48v-407c0 -171 80 -237 179 -237c112 0 189 72 189 237v407h48v-402c0 -207 -112 -283 -239 -283c-118 0 -225 69 -225 275v410z" />
    <glyph glyph-name="V" unicode="V" horiz-adv-x="509" 
d="M269 0h-45l-224 674h50l119 -361c32 -98 60 -183 79 -258h3c20 76 51 163 86 258l131 361h51z" />
    <glyph glyph-name="W" unicode="W" horiz-adv-x="820" 
d="M238 0h-45l-178 674h49l98 -380c22 -87 43 -168 56 -231h2c11 63 35 143 62 231l110 380h46l100 -377c22 -82 44 -166 55 -234h2c15 73 37 146 61 232l111 379h49l-202 -674h-46l-101 388c-27 99 -43 165 -52 228h-2c-11 -62 -30 -129 -60 -228z" />
    <glyph glyph-name="X" unicode="X" horiz-adv-x="546" 
d="M515 0h-55l-102 166c-42 63 -66 101 -89 140h-2c-22 -39 -43 -76 -85 -141l-97 -165h-55l214 341l-205 333h54l109 -180c28 -45 49 -80 69 -116h2c21 39 42 70 71 116l113 180h56l-215 -328z" />
    <glyph glyph-name="Y" unicode="Y" horiz-adv-x="503" 
d="M277 0h-48v292l-214 382h53l111 -201c29 -53 53 -97 77 -145h2c20 45 48 92 78 146l115 200h53l-227 -383v-291z" />
    <glyph glyph-name="Z" unicode="Z" horiz-adv-x="539" 
d="M34 0v31l406 600v3h-373v40h434v-32l-407 -599v-3h412v-40h-472z" />
    <glyph glyph-name="bracketleft" unicode="[" horiz-adv-x="265" 
d="M260 -112h-170v798h170v-37h-127v-724h127v-37z" />
    <glyph glyph-name="backslash" unicode="\" horiz-adv-x="348" 
d="M359 -39h-48l-316 725h48z" />
    <glyph glyph-name="bracketright" unicode="]" horiz-adv-x="265" 
d="M6 686h170v-798h-170v37h126v724h-126v37z" />
    <glyph glyph-name="asciicircum" unicode="^" horiz-adv-x="596" 
d="M525 196h-46l-179 408h-2l-180 -408h-46l205 454h43z" />
    <glyph glyph-name="underscore" unicode="_" horiz-adv-x="500" 
d="M0 -75h500v-50h-500v50z" />
    <glyph glyph-name="quoteleft" unicode="&#x2018;" horiz-adv-x="174" 
d="M99 480l-59 -10c18 75 61 189 77 217l34 5c-16 -42 -43 -150 -52 -212z" />
    <glyph glyph-name="a" unicode="a" horiz-adv-x="454" 
d="M380 302v-188c0 -38 1 -77 7 -114h-44l-7 69h-2c-24 -37 -77 -80 -154 -80c-97 0 -141 68 -141 132c0 111 97 178 293 176v13c0 47 -9 142 -123 141c-42 0 -86 -11 -121 -36l-15 35c44 29 98 41 141 41c139 0 166 -104 166 -189zM332 154v103c-105 3 -243 -13 -243 -128
c0 -69 46 -100 96 -100c80 0 126 49 142 96c4 10 5 21 5 29z" />
    <glyph glyph-name="b" unicode="b" horiz-adv-x="552" 
d="M80 112v598h48v-320h2c32 62 91 101 175 101c122 0 206 -102 206 -246c0 -171 -109 -256 -214 -256c-78 0 -134 32 -172 98h-2l-4 -87h-43c3 34 4 76 4 112zM128 281v-96c0 -11 1 -23 4 -35c21 -73 83 -121 158 -121c110 0 173 90 173 215c0 110 -60 207 -169 207
c-70 0 -137 -48 -160 -128c-3 -12 -6 -25 -6 -42z" />
    <glyph glyph-name="c" unicode="c" horiz-adv-x="446" 
d="M399 59l13 -38c-21 -10 -71 -31 -141 -31c-138 0 -230 101 -230 245c0 152 104 256 247 256c59 0 108 -17 126 -30l-17 -39c-23 13 -60 28 -113 28c-129 0 -195 -99 -195 -211c0 -126 79 -208 190 -208c57 0 94 16 120 28z" />
    <glyph glyph-name="d" unicode="d" horiz-adv-x="544" 
d="M416 710h48v-598c0 -36 1 -78 4 -112h-43l-4 91h-2c-25 -53 -82 -102 -171 -102c-119 0 -207 99 -207 242c-1 160 98 260 216 260c83 0 136 -43 157 -85h2v304zM416 194v96c0 13 -1 31 -5 44c-16 64 -73 117 -151 117c-105 0 -171 -91 -171 -215c0 -108 54 -207 168 -207
c69 0 134 46 154 125c4 13 5 25 5 40z" />
    <glyph glyph-name="e" unicode="e" horiz-adv-x="485" 
d="M442 245h-354c0 -153 83 -214 183 -214c70 0 106 14 133 27l12 -37c-18 -10 -67 -31 -151 -31c-138 0 -224 100 -224 241c0 160 92 260 216 260c157 0 187 -148 187 -217c0 -13 0 -20 -2 -29zM90 283h304c1 67 -27 168 -143 168c-106 0 -152 -94 -161 -168z" />
    <glyph glyph-name="f" unicode="f" horiz-adv-x="262" 
d="M132 0h-48v441h-69v39h69v26c0 74 14 134 53 173c30 29 69 42 107 42c31 0 57 -8 72 -16l-15 -37c-14 7 -32 13 -61 13c-90 0 -108 -82 -108 -174v-27h128v-39h-128v-441z" />
    <glyph glyph-name="g" unicode="g" horiz-adv-x="544" 
d="M464 356v-286c0 -123 -26 -184 -66 -222c-44 -42 -109 -57 -163 -57c-55 0 -116 14 -153 42l17 38c34 -22 81 -40 143 -40c101 0 174 52 174 194v68h-2c-25 -49 -81 -93 -167 -93c-121 0 -206 105 -206 236c0 167 110 255 216 255c95 0 142 -52 162 -92h2l3 81h44
c-3 -36 -4 -74 -4 -124zM416 199v96c0 18 -1 33 -6 47c-20 58 -70 109 -149 109c-102 0 -172 -83 -172 -210c0 -108 57 -201 170 -201c65 0 124 39 149 108c5 16 8 34 8 51z" />
    <glyph glyph-name="h" unicode="h" horiz-adv-x="536" 
d="M81 0v710h48v-316h2c14 27 37 53 65 69c28 18 61 28 97 28c45 0 167 -23 167 -202v-289h-48v284c0 87 -34 165 -132 165c-68 0 -124 -49 -145 -108c-5 -15 -6 -28 -6 -48v-293h-48z" />
    <glyph glyph-name="i" unicode="i" horiz-adv-x="209" 
d="M129 0h-48v480h48v-480zM105 659c22 0 38 -19 38 -42c0 -22 -15 -41 -40 -41c-22 0 -37 19 -37 41s17 42 39 42z" />
    <glyph glyph-name="j" unicode="j" horiz-adv-x="214" 
d="M-42 -209l-7 39c42 2 78 15 100 40c25 30 36 68 36 195v415h48v-447c0 -86 -10 -145 -51 -190c-35 -38 -95 -51 -126 -52zM112 659c22 0 37 -20 37 -42c0 -21 -14 -41 -40 -41c-22 0 -37 20 -37 41c0 22 17 42 40 42z" />
    <glyph glyph-name="k" unicode="k" horiz-adv-x="423" 
d="M128 710v-461h2c12 15 31 37 46 53l170 178h58l-194 -199l221 -281h-58l-196 252l-49 -52v-200h-48v710h48z" />
    <glyph glyph-name="l" unicode="l" horiz-adv-x="212" 
d="M81 0v710h48v-710h-48z" />
    <glyph glyph-name="m" unicode="m" horiz-adv-x="819" 
d="M81 0v365c0 44 -1 77 -4 115h45l3 -85h2c31 55 77 96 156 96c66 0 117 -44 138 -105h2c13 29 31 50 49 65c31 26 63 40 114 40c47 0 157 -26 157 -208v-283h-48v278c0 108 -42 172 -125 172c-60 0 -107 -44 -126 -95c-4 -14 -8 -30 -8 -47v-308h-48v300
c0 87 -41 150 -119 150c-64 0 -115 -52 -133 -108c-4 -13 -7 -30 -7 -46v-296h-48z" />
    <glyph glyph-name="n" unicode="n" horiz-adv-x="536" 
d="M81 0v365c0 44 -1 77 -4 115h45l3 -87h2c26 54 87 98 165 98c46 0 168 -23 168 -203v-288h-48v284c0 87 -34 166 -133 166c-67 0 -125 -48 -144 -110c-3 -12 -6 -28 -6 -43v-297h-48z" />
    <glyph glyph-name="o" unicode="o" horiz-adv-x="532" 
d="M268 491c133 0 223 -100 223 -246c0 -179 -123 -256 -230 -256c-124 0 -220 97 -220 247c0 164 108 255 227 255zM267 451c-123 0 -178 -109 -178 -212c0 -120 77 -210 175 -210c100 0 179 90 179 213c0 88 -49 209 -176 209z" />
    <glyph glyph-name="p" unicode="p" horiz-adv-x="552" 
d="M80 -198v525c0 60 -1 107 -4 153h46l3 -91h2c35 63 94 102 177 102c124 0 207 -102 207 -243c0 -171 -102 -259 -218 -259c-69 0 -130 31 -163 89h-2v-276h-48zM128 283v-94c0 -13 1 -26 4 -38c20 -74 84 -122 158 -122c110 0 173 89 173 217c0 108 -60 205 -169 205
c-70 0 -138 -48 -159 -127c-3 -13 -7 -28 -7 -41z" />
    <glyph glyph-name="q" unicode="q" horiz-adv-x="542" 
d="M416 -198v281h-2c-24 -48 -81 -94 -166 -94c-118 0 -207 100 -207 242c0 185 120 260 221 260c83 0 135 -45 157 -93h2l3 82h44c-3 -36 -4 -74 -4 -124v-554h-48zM416 188v103c0 15 -1 30 -5 44c-17 62 -72 116 -150 116c-105 0 -172 -88 -172 -214
c0 -107 50 -208 168 -208c66 0 125 39 150 112c5 14 9 32 9 47z" />
    <glyph glyph-name="r" unicode="r" horiz-adv-x="295" 
d="M80 0v336c0 48 -1 97 -4 144h44l2 -97h3c21 60 71 108 136 108c7 0 14 -1 20 -2v-46c-7 2 -14 2 -23 2c-66 0 -113 -57 -126 -134c-3 -14 -4 -30 -4 -46v-265h-48z" />
    <glyph glyph-name="s" unicode="s" horiz-adv-x="373" 
d="M44 23l17 40c26 -16 65 -33 108 -33c76 0 112 41 112 91c0 53 -32 81 -101 109c-79 30 -122 73 -122 131c0 69 55 130 148 130c44 0 82 -13 106 -30l-18 -39c-17 12 -48 29 -96 29c-61 0 -93 -39 -93 -83c0 -50 34 -72 99 -99c78 -30 124 -69 124 -142
c0 -82 -64 -137 -162 -137c-46 0 -90 13 -122 33z" />
    <glyph glyph-name="t" unicode="t" horiz-adv-x="309" 
d="M99 568l48 18v-106h137v-39h-137v-312c0 -61 19 -99 70 -99c25 0 43 3 55 7l6 -36c-16 -7 -38 -12 -67 -12c-35 0 -64 11 -82 34c-22 25 -30 66 -30 115v303h-81v39h81v88z" />
    <glyph glyph-name="u" unicode="u" horiz-adv-x="531" 
d="M451 480v-363c0 -42 1 -80 4 -117h-45l-3 86h-2c-24 -45 -79 -97 -164 -97c-61 0 -164 31 -164 212v279h48v-270c0 -104 32 -179 127 -179c70 0 121 49 142 97c5 15 9 34 9 53v299h48z" />
    <glyph glyph-name="v" unicode="v" horiz-adv-x="452" 
d="M15 480h51l112 -298c19 -47 34 -88 47 -128h2c13 40 31 82 49 128l114 298h50l-195 -480h-42z" />
    <glyph glyph-name="w" unicode="w" horiz-adv-x="722" 
d="M23 480h49l81 -273c16 -56 30 -104 41 -150h2c12 44 29 95 48 150l96 273h45l92 -271c20 -58 35 -107 47 -152h2c10 45 25 93 44 151l85 272h49l-160 -480h-41l-91 267c-20 58 -37 110 -50 164h-2c-14 -56 -32 -110 -52 -165l-95 -266h-42z" />
    <glyph glyph-name="x" unicode="x" horiz-adv-x="429" 
d="M21 480h54l82 -117c20 -29 37 -53 55 -82h2c18 29 37 55 56 82l82 117h53l-168 -234l174 -246h-55l-85 122c-22 30 -40 59 -60 90h-2c-18 -31 -37 -58 -60 -90l-84 -122h-54l176 245z" />
    <glyph glyph-name="y" unicode="y" horiz-adv-x="440" 
d="M11 480h51l126 -314c13 -34 26 -73 35 -103h2c10 29 22 67 37 106l117 311h51l-144 -358c-58 -149 -99 -238 -162 -293c-38 -32 -72 -46 -84 -50l-15 40c24 9 56 26 84 53c24 24 56 64 80 121c4 10 6 16 6 21c0 4 -2 11 -6 21z" />
    <glyph glyph-name="z" unicode="z" horiz-adv-x="403" 
d="M16 0v29l259 341c18 23 36 45 55 69v2h-293v39h351l-1 -32l-259 -341c-17 -22 -33 -44 -51 -66v-2h312v-39h-373z" />
    <glyph glyph-name="braceleft" unicode="{" horiz-adv-x="265" 
d="M26 270v35c73 -2 85 39 85 79c0 29 -4 58 -9 86c-5 29 -10 58 -10 87c0 91 61 129 141 129h12v-37h-18c-67 -1 -91 -34 -91 -96c0 -27 4 -54 9 -80c4 -27 9 -53 9 -80c0 -58 -26 -92 -64 -104v-2c38 -11 64 -48 64 -104c0 -27 -5 -54 -9 -80c-5 -27 -9 -54 -9 -82
c0 -63 29 -95 91 -96h18v-37h-12c-78 0 -141 36 -141 137c0 29 5 57 10 84c5 28 9 55 9 83c0 34 -12 80 -85 78z" />
    <glyph glyph-name="bar" unicode="|" horiz-adv-x="212" 
d="M84 750h43v-1000h-43v1000z" />
    <glyph glyph-name="braceright" unicode="}" horiz-adv-x="265" 
d="M239 305v-35c-73 2 -85 -44 -85 -78c0 -28 4 -55 10 -83c4 -27 9 -55 9 -84c0 -101 -63 -137 -141 -137h-12v37h18c62 1 91 33 91 96c0 28 -4 55 -9 82c-4 26 -9 53 -9 80c0 56 26 93 64 104v2c-38 12 -64 46 -64 104c0 27 5 53 9 80c5 26 9 53 9 80c0 62 -24 95 -91 96
h-18v37h12c80 0 141 -38 141 -129c0 -29 -5 -58 -9 -87c-6 -28 -10 -57 -10 -86c0 -40 12 -81 85 -79z" />
    <glyph glyph-name="asciitilde" unicode="~" horiz-adv-x="596" 
d="M90 222h-38c-5 79 45 129 107 129c38 0 68 -11 143 -45c54 -23 98 -43 142 -43s64 34 63 86h37c5 -93 -49 -129 -104 -129c-33 0 -69 9 -147 43c-50 22 -93 45 -136 45s-67 -30 -67 -86z" />
    <glyph glyph-name="exclamdown" unicode="&#xa1;" horiz-adv-x="207" 
d="M133 -197h-58l9 493h40zM105 485c24 0 39 -19 39 -45c0 -24 -15 -44 -40 -44c-24 0 -41 20 -40 44c0 26 17 45 41 45z" />
    <glyph glyph-name="cent" unicode="&#xa2;" horiz-adv-x="488" 
d="M301 -16h-41v104c-64 6 -105 28 -141 66c-34 36 -57 94 -57 171c0 135 83 230 198 245v103h41v-102c53 0 96 -16 117 -28l-17 -39c-20 13 -57 29 -114 29c-110 0 -179 -96 -179 -206c0 -123 74 -200 173 -200c62 0 100 17 123 29l13 -35c-16 -11 -62 -30 -116 -33v-104z
" />
    <glyph glyph-name="sterling" unicode="&#xa3;" horiz-adv-x="488" 
d="M449 0h-390v30c76 42 115 114 115 193c0 30 -2 55 -6 89h-106v38h101c-5 33 -13 79 -13 124c0 115 74 187 170 187c51 0 84 -12 104 -25l-16 -37c-17 11 -48 22 -93 22c-82 0 -119 -59 -119 -144c0 -53 6 -91 13 -127h148v-38h-143c5 -46 9 -94 -1 -138
c-12 -54 -41 -97 -81 -131v-2h317v-41z" />
    <glyph glyph-name="fraction" unicode="&#x2044;" horiz-adv-x="119" 
d="M-113 -11h-40l386 672h40z" />
    <glyph glyph-name="yen" unicode="&#xa5;" horiz-adv-x="488" 
d="M260 0h-46v185h-154v36h154v78h-154v36h137l-171 315h51l124 -234c16 -32 27 -54 39 -80h3c9 24 23 52 39 83l131 231h50l-184 -315h136v-36h-155v-78h155v-36h-155v-185z" />
    <glyph glyph-name="florin" unicode="&#x192;" horiz-adv-x="488" 
d="M110 357v38h104l6 54c15 118 64 212 175 212c28 -2 48 -8 60 -14l-11 -37c-17 6 -35 11 -56 11c-80 0 -112 -83 -121 -170l-7 -56h132v-38h-136l-26 -220c-16 -134 -57 -217 -159 -217c-28 0 -52 7 -69 16l12 36c19 -9 38 -13 61 -13c70 0 97 71 108 166l26 232h-99z" />
    <glyph glyph-name="section" unicode="&#xa7;" horiz-adv-x="493" 
d="M111 356c0 -38 25 -72 117 -105c54 -19 87 -35 112 -52c27 23 42 56 42 92c0 45 -26 81 -101 107c-38 14 -85 29 -119 52c-39 -30 -51 -60 -51 -94zM389 648l-20 -36c-23 17 -62 34 -112 34c-59 0 -113 -34 -113 -90c0 -64 60 -85 136 -111c82 -29 146 -65 146 -148
c0 -51 -22 -87 -60 -120c16 -14 35 -47 35 -86c0 -93 -77 -144 -170 -144c-61 0 -111 17 -139 41l21 35c20 -17 62 -39 121 -39c69 0 124 36 124 100c0 55 -28 85 -132 122c-100 37 -158 72 -158 149c0 34 17 75 67 115c-20 15 -35 46 -35 78c0 81 73 134 163 134
c56 0 100 -17 126 -34z" />
    <glyph glyph-name="currency" unicode="&#xa4;" horiz-adv-x="488" 
d="M244 524c46 0 88 -17 113 -43l69 69l30 -31l-72 -66c21 -29 36 -75 36 -119c0 -53 -16 -99 -35 -124l68 -69l-30 -31l-66 70c-30 -30 -76 -44 -116 -44c-42 0 -88 16 -113 40l-64 -66l-29 31l65 65c-22 27 -38 75 -38 120c0 50 17 96 41 127l-68 65l31 32l63 -69
c28 26 71 43 115 43zM240 485c-85 0 -133 -74 -133 -157c0 -109 76 -153 133 -153c63 -1 135 41 135 158c0 72 -43 152 -135 152z" />
    <glyph glyph-name="quotesingle" unicode="'" horiz-adv-x="178" 
d="M60 692h57l-12 -221h-32z" />
    <glyph glyph-name="quotedblleft" unicode="&#x201c;" horiz-adv-x="293" 
d="M99 480l-59 -10c18 75 61 189 77 217l34 5c-16 -42 -43 -150 -52 -212zM218 480l-59 -10c18 75 61 189 77 217l34 5c-16 -42 -43 -150 -52 -212z" />
    <glyph glyph-name="guillemotleft" unicode="&#xab;" horiz-adv-x="392" 
d="M222 432l-142 -180l143 -180h-50l-143 180l143 180h49zM368 432l-142 -180l143 -180h-50l-143 180l142 180h50z" />
    <glyph glyph-name="guilsinglleft" unicode="&#x2039;" horiz-adv-x="246" 
d="M222 432l-142 -180l143 -180h-50l-143 180l142 180h50z" />
    <glyph glyph-name="guilsinglright" unicode="&#x203a;" horiz-adv-x="246" 
d="M166 252l-143 180h50l143 -180l-143 -180h-49z" />
    <glyph glyph-name="fi" unicode="&#xfb01;" horiz-adv-x="484" 
d="M132 0h-48v441h-69v39h69v31c0 123 58 210 184 210c41 0 88 -15 110 -33l-22 -37c-21 16 -57 30 -97 30c-100 0 -127 -80 -127 -173v-28h271v-480h-48v441h-223v-441z" />
    <glyph glyph-name="fl" unicode="&#xfb02;" horiz-adv-x="484" 
d="M132 0h-48v441h-69v39h69v21c0 76 21 135 65 175c31 28 74 45 136 45c45 0 89 -11 118 -26v-695h-48v666c-17 9 -42 15 -81 15c-109 0 -142 -82 -142 -173v-28h128v-39h-128v-441z" />
    <glyph glyph-name="endash" unicode="&#x2013;" horiz-adv-x="500" 
d="M30 274h440v-39h-440v39z" />
    <glyph glyph-name="dagger" unicode="&#x2020;" horiz-adv-x="486" 
d="M219 674h47l-5 -218l175 5v-44l-175 5l5 -472h-47l5 472l-175 -5v44l175 -5z" />
    <glyph glyph-name="daggerdbl" unicode="&#x2021;" horiz-adv-x="486" 
d="M219 674h47l-4 -210l174 5v-44l-174 5v-233l174 5v-44l-174 5l4 -213h-47l3 213l-173 -5v44l174 -5v233l-174 -5v44l174 -5z" />
    <glyph glyph-name="periodcentered" unicode="&#xb7;" horiz-adv-x="174" 
d="M85 221c-23 0 -40 20 -39 44c0 26 17 45 41 45s40 -19 40 -45c0 -24 -16 -44 -42 -44z" />
    <glyph glyph-name="paragraph" unicode="&#xb6;" horiz-adv-x="493" 
d="M287 -51h-41v315h-8c-92 0 -201 63 -203 192c-1 103 57 218 263 218c49 0 79 -3 101 -7v-718h-41v686h-71v-686z" />
    <glyph glyph-name="bullet" unicode="&#x2022;" horiz-adv-x="247" 
d="M123 173c-48 0 -88 39 -88 89c-1 49 40 89 89 89c50 0 90 -40 90 -89s-40 -89 -91 -89z" />
    <glyph glyph-name="quotesinglbase" unicode="&#x201a;" horiz-adv-x="174" 
d="M57 -121l-34 -5c16 42 43 150 52 212l59 10c-18 -75 -61 -189 -77 -217z" />
    <glyph glyph-name="quotedblbase" unicode="&#x201e;" horiz-adv-x="293" 
d="M57 -121l-34 -5c16 42 43 150 52 212l59 10c-18 -75 -61 -189 -77 -217zM176 -121l-34 -5c16 42 43 150 52 212l59 10c-18 -75 -61 -189 -77 -217z" />
    <glyph glyph-name="quotedblright" unicode="&#x201d;" horiz-adv-x="293" 
d="M92 682l59 10c-18 -75 -61 -189 -77 -217l-34 -5c16 42 43 150 52 212zM211 682l59 10c-18 -75 -61 -189 -77 -217l-34 -5c16 42 43 150 52 212z" />
    <glyph glyph-name="guillemotright" unicode="&#xbb;" horiz-adv-x="392" 
d="M166 252l-143 180h50l143 -180l-143 -180h-49zM312 252l-143 180h50l143 -180l-143 -180h-49z" />
    <glyph glyph-name="ellipsis" unicode="&#x2026;" horiz-adv-x="1000" 
d="M166 -11c-23 0 -40 21 -39 45c0 26 17 45 41 45s40 -19 40 -45c0 -24 -16 -45 -42 -45zM499 -11c-23 0 -40 21 -39 45c0 26 17 45 41 45s40 -19 40 -45c0 -24 -16 -45 -42 -45zM832 -11c-23 0 -40 21 -39 45c0 26 17 45 41 45s40 -19 40 -45c0 -24 -16 -45 -42 -45z" />
    <glyph glyph-name="perthousand" unicode="&#x2030;" horiz-adv-x="1078" 
d="M175 661c76 0 134 -62 134 -194c0 -138 -64 -204 -140 -204c-70 0 -135 60 -137 195c0 140 71 203 143 203zM170 627c-60 0 -95 -74 -95 -165c-2 -92 34 -165 95 -165c68 0 96 74 96 167c0 88 -26 163 -96 163zM193 -13h-40l388 676h40zM571 392c76 0 134 -62 134 -194
c0 -138 -64 -204 -140 -204c-70 0 -135 60 -137 195c0 140 71 203 143 203zM566 358c-60 0 -95 -74 -95 -165c-2 -92 34 -165 95 -165c68 0 96 74 96 167c0 88 -26 163 -96 163zM911 392c77 0 135 -62 135 -194c0 -138 -64 -204 -141 -204c-70 0 -135 60 -137 195
c0 140 71 203 143 203zM906 358c-60 0 -95 -74 -95 -165c-2 -92 34 -165 95 -165c68 0 97 74 97 167c0 88 -26 163 -97 163z" />
    <glyph glyph-name="questiondown" unicode="&#xbf;" horiz-adv-x="381" 
d="M232 485c23 0 39 -19 39 -45c0 -24 -16 -45 -41 -45c-24 0 -41 21 -40 45c0 26 16 45 42 45zM208 299h45l3 -26c8 -56 -12 -119 -64 -183c-53 -63 -77 -106 -77 -157c0 -62 37 -103 109 -103c37 0 76 12 103 32l17 -35c-32 -25 -87 -40 -129 -40c-104 0 -151 70 -151 142
c0 62 32 112 86 177c49 60 65 108 60 162z" />
    <glyph glyph-name="grave" unicode="`" 
d="M33 688h70l89 -138h-37z" />
    <glyph glyph-name="acute" unicode="&#xb4;" 
d="M206 688h70l-122 -138h-37z" />
    <glyph glyph-name="circumflex" unicode="&#x2c6;" 
d="M131 688h35l94 -138h-48l-62 99h-2l-63 -99h-45z" />
    <glyph glyph-name="tilde" unicode="&#x2dc;" 
d="M73 572h-34c-1 54 23 88 60 88c19 0 35 -10 60 -22c16 -9 29 -16 42 -16c15 0 26 9 28 41h33c0 -50 -17 -84 -60 -84c-18 0 -36 9 -56 20c-21 11 -34 18 -46 18c-17 0 -25 -18 -27 -45z" />
    <glyph glyph-name="macron" unicode="&#xaf;" 
d="M46 629h210v-40h-210v40z" />
    <glyph glyph-name="breve" unicode="&#x2d8;" 
d="M35 676h36c6 -41 36 -74 79 -74c52 0 76 39 79 74h36c0 -69 -49 -114 -115 -114c-85 0 -115 62 -115 114z" />
    <glyph glyph-name="dotaccent" unicode="&#x2d9;" 
d="M150 578c-21 0 -37 19 -37 40s17 40 39 40c21 0 37 -18 37 -40c0 -21 -15 -40 -39 -40z" />
    <glyph glyph-name="dieresis" unicode="&#xa8;" 
d="M66 578h-2c-22 0 -36 19 -36 39s17 39 38 39s37 -18 37 -39c0 -20 -14 -39 -37 -39zM235 578h-2c-22 0 -36 19 -36 39s17 39 38 39s37 -18 37 -39c0 -20 -14 -39 -37 -39z" />
    <glyph glyph-name="ring" unicode="&#x2da;" 
d="M143 536c-53 0 -93 39 -93 88c0 51 38 91 94 91c51 0 90 -39 90 -91c0 -50 -43 -88 -91 -88zM142 566c32 0 55 27 55 60s-23 59 -56 59c-31 0 -52 -28 -52 -61c0 -29 23 -58 53 -58z" />
    <glyph glyph-name="cedilla" unicode="&#xb8;" 
d="M145 1h37l-36 -55c36 -5 68 -30 68 -67c0 -55 -43 -77 -94 -77c-19 0 -44 7 -60 16l12 34c16 -9 35 -13 54 -13c25 0 48 9 47 35c-1 30 -35 41 -78 45z" />
    <glyph glyph-name="hungarumlaut" unicode="&#x2dd;" 
d="M161 688h65l-118 -128h-36zM287 688h65l-118 -128h-36z" />
    <glyph glyph-name="ogonek" unicode="&#x2db;" 
d="M149 5h42c-19 -20 -70 -73 -70 -117c0 -32 21 -48 49 -48c17 0 33 4 46 10l9 -29c-16 -12 -47 -18 -67 -18c-48 0 -82 27 -82 74c0 51 42 97 73 128z" />
    <glyph glyph-name="caron" unicode="&#x2c7;" 
d="M171 550h-38l-94 138h48l64 -100h2l64 100h45z" />
    <glyph glyph-name="emdash" unicode="&#x2014;" horiz-adv-x="1000" 
d="M30 274h940v-39h-940v39z" />
    <glyph glyph-name="AE" unicode="&#xc6;" horiz-adv-x="738" 
d="M46 0h-49l321 674h365v-40h-292l30 -260h249v-40h-244l36 -294h242l-1 -40h-282l-33 271h-213zM194 310h189l-24 212c-3 33 -10 82 -12 116h-4c-13 -31 -31 -71 -48 -109z" />
    <glyph glyph-name="ordfeminine" unicode="&#xaa;" horiz-adv-x="326" 
d="M282 266h-38l-5 47h-2c-17 -24 -53 -52 -102 -52c-67 0 -101 43 -101 94c0 68 68 117 202 112v12c0 19 -10 76 -82 76c-29 0 -58 -7 -82 -27l-13 30c31 24 71 33 103 33c95 0 115 -69 115 -141v-107c0 -25 1 -51 5 -77zM236 366v67c-69 2 -159 -8 -159 -77
c0 -40 32 -60 66 -60c37 0 64 20 80 41c8 11 13 22 13 29z" />
    <glyph glyph-name="Lslash" unicode="&#x141;" horiz-adv-x="451" 
d="M432 0h-348v291l-89 -68v44l89 67v340h48v-305l139 104v-45l-139 -104v-284h300v-40z" />
    <glyph glyph-name="Oslash" unicode="&#xd8;" horiz-adv-x="671" 
d="M86 -28l-29 23l66 89c-53 60 -86 147 -86 248c0 223 137 354 303 354c65 0 128 -21 180 -65l61 81l32 -22l-65 -87c54 -60 86 -147 86 -249c0 -244 -151 -355 -297 -355c-70 0 -135 23 -187 67zM152 124l342 461c-42 37 -94 61 -157 61c-170 0 -250 -161 -250 -308
c0 -92 26 -157 63 -215zM519 554l-342 -462c41 -40 88 -63 158 -63c162 0 249 151 249 312c0 70 -16 144 -63 213h-2z" />
    <glyph glyph-name="OE" unicode="&#x152;" horiz-adv-x="868" 
d="M832 40v-40h-322c-21 -1 -45 -3 -69 -6c-26 -2 -53 -5 -84 -5c-196 0 -320 144 -320 343c0 226 138 354 327 354c34 0 61 -2 86 -6c25 -3 46 -6 66 -6h300v-40h-285v-260h269v-40h-269v-294h301zM483 44v586c-30 9 -66 16 -123 16c-179 0 -273 -135 -273 -310
c0 -184 104 -307 280 -307c45 0 90 6 116 15z" />
    <glyph glyph-name="ordmasculine" unicode="&#xba;" horiz-adv-x="337" 
d="M170 591c93 0 153 -69 153 -164c-2 -116 -83 -166 -155 -166c-86 0 -153 64 -153 162c0 106 78 168 155 168zM167 556c-74 0 -110 -69 -110 -132c0 -76 55 -128 111 -128c63 0 112 51 112 130c0 55 -31 130 -113 130z" />
    <glyph glyph-name="ae" unicode="&#xe6;" horiz-adv-x="755" 
d="M712 251h-334c-5 -147 69 -221 169 -221c69 0 109 18 128 28l13 -37c-29 -16 -80 -32 -145 -32c-84 0 -158 44 -182 120h-2c-26 -77 -96 -120 -178 -120c-98 0 -141 67 -141 128c0 107 97 176 294 172v24c0 30 -13 138 -125 138c-43 0 -92 -15 -120 -36l-15 34
c48 32 104 42 138 42c92 0 138 -47 152 -116h2c29 71 90 116 170 116c149 0 178 -154 178 -211c0 -12 0 -21 -2 -29zM334 168v83c-99 3 -245 -10 -245 -129c0 -59 44 -93 97 -93c80 -1 127 47 143 102c4 12 5 25 5 37zM379 289h285c3 60 -32 163 -132 163
c-102 0 -149 -95 -153 -163z" />
    <glyph glyph-name="dotlessi" unicode="&#x131;" horiz-adv-x="209" 
d="M129 0h-48v480h48v-480z" />
    <glyph glyph-name="lslash" unicode="&#x142;" horiz-adv-x="214" 
d="M131 0h-48v325l-70 -63v45l70 63v340h48v-301l71 64v-46l-71 -63v-364z" />
    <glyph glyph-name="oslash" unicode="&#xf8;" horiz-adv-x="532" 
d="M269 491c43 0 88 -13 125 -39l39 55l31 -21l-41 -60c44 -46 68 -109 68 -181c0 -179 -120 -256 -225 -256c-47 0 -92 13 -128 40l-41 -56l-28 25l40 57c-42 43 -68 106 -68 181c0 164 107 255 228 255zM137 91l233 324c-27 24 -62 36 -104 36c-126 0 -177 -113 -177 -212
c0 -52 13 -104 46 -148h2zM395 387l-232 -324c29 -24 62 -34 99 -34c106 0 181 92 181 214c0 39 -11 97 -46 144h-2z" />
    <glyph glyph-name="oe" unicode="&#x153;" horiz-adv-x="860" 
d="M817 244h-340c-2 -140 72 -214 177 -214c61 0 98 16 126 28l14 -37c-31 -18 -87 -32 -145 -32c-91 0 -163 43 -198 132h-2c-32 -91 -114 -132 -190 -132c-126 0 -218 98 -218 247c0 159 101 255 221 255c90 0 162 -49 190 -133h2c35 89 102 133 181 133
c154 0 183 -151 183 -216c0 -13 0 -23 -1 -31zM259 451c-124 0 -170 -120 -170 -213c0 -118 75 -209 171 -209c100 0 171 86 171 211c0 101 -51 211 -172 211zM477 283h292c2 66 -28 168 -138 168c-103 0 -146 -94 -154 -168z" />
    <glyph glyph-name="germandbls" unicode="&#xdf;" horiz-adv-x="516" 
d="M129 0h-48v465c0 114 27 175 68 213c34 30 75 43 125 43c79 0 155 -52 155 -159c0 -37 -13 -67 -22 -82c-48 -19 -80 -48 -80 -87c0 -42 25 -65 61 -100c43 -43 82 -82 82 -152c0 -89 -65 -152 -165 -152c-38 0 -75 8 -105 24l13 40c31 -15 62 -24 94 -24
c77 0 117 48 117 104c0 52 -23 86 -66 124c-47 43 -77 78 -77 128c0 52 33 94 93 122c6 13 9 29 9 48c0 83 -49 126 -119 126c-90 0 -135 -63 -135 -218v-463z" />
    <glyph glyph-name="onesuperior" unicode="&#xb9;" horiz-adv-x="210" 
d="M142 443h-41v349h-2l-67 -34l-9 33l82 42h37v-390z" />
    <glyph glyph-name="logicalnot" unicode="&#xac;" horiz-adv-x="596" 
d="M40 385h516v-255h-43v215h-473v40z" />
    <glyph glyph-name="mu" unicode="&#xb5;" horiz-adv-x="534" 
d="M409 80h-2c-23 -39 -73 -90 -150 -90c-55 0 -105 19 -129 68v-70c0 -55 1 -144 11 -186h-44c-11 34 -15 99 -15 180v498h48v-294c0 -80 35 -155 130 -155c70 0 118 48 139 97c5 15 9 33 9 53v299h48v-363c0 -61 9 -86 48 -89l-6 -38c-9 -1 -6 -1 -15 -1
c-34 0 -68 22 -72 91z" />
    <glyph glyph-name="trademark" unicode="&#x2122;" horiz-adv-x="600" 
d="M33 674h220v-31h-92v-241h-36v241h-92v31zM586 402h-39l-13 185c-1 16 -2 36 -3 58h-1c-7 -16 -15 -44 -23 -65l-62 -174h-41l-64 179c-6 17 -15 43 -21 60h-1c0 -18 -1 -37 -2 -58l-13 -185h-37l23 272h53l64 -174c8 -20 13 -39 19 -57h2c6 19 13 41 17 55l64 176h53z
" />
    <glyph glyph-name="Eth" unicode="&#xd0;" horiz-adv-x="651" 
d="M-5 322v39h89v306c52 9 109 15 173 15c123 0 216 -33 272 -92c54 -56 84 -132 84 -237c0 -99 -27 -189 -88 -256c-59 -65 -161 -103 -291 -103c-52 0 -101 1 -150 6v322h-89zM341 361v-39h-209v-283c27 -4 66 -5 109 -5c216 0 323 121 323 320c2 171 -93 288 -310 288
c-52 0 -93 -5 -122 -11v-270h209z" />
    <glyph glyph-name="onehalf" unicode="&#xbd;" horiz-adv-x="715" 
d="M151 266h-41v350h-2l-67 -35l-9 34l82 41h37v-390zM140 -11h-40l386 672h40zM413 0v25l64 61c86 81 131 136 131 191c0 45 -25 83 -86 83c-37 0 -66 -20 -83 -33l-15 27c23 22 63 41 108 41c91 0 120 -63 120 -108c0 -77 -59 -137 -144 -216l-35 -33v-2h185v-36h-245z
" />
    <glyph glyph-name="plusminus" unicode="&#xb1;" horiz-adv-x="596" 
d="M277 567h43v-207h236v-40h-236v-215h-43v215h-236v40h236v207zM41 40h515v-40h-515v40z" />
    <glyph glyph-name="Thorn" unicode="&#xde;" horiz-adv-x="501" 
d="M81 0v674h47v-138c32 6 72 9 104 9c80 0 137 -20 175 -56c30 -30 49 -73 49 -120c0 -128 -99 -203 -247 -203c-26 0 -56 1 -81 6v-172h-47zM128 495v-282c27 -6 56 -7 83 -7c125 0 197 58 197 155c0 102 -75 144 -178 144c-45 0 -83 -5 -102 -10z" />
    <glyph glyph-name="onequarter" unicode="&#xbc;" horiz-adv-x="715" 
d="M167 266h-41v350h-2l-67 -35l-9 34l82 41h37v-390zM157 -11h-40l386 672h40zM615 0h-41v110h-203v25l207 260h37v-251h65v-34h-65v-110zM574 144v145c0 23 1 41 3 56h-2c-13 -19 -22 -33 -32 -48l-121 -152v-1h152z" />
    <glyph glyph-name="divide" unicode="&#xf7;" horiz-adv-x="596" 
d="M297 399c-24 0 -41 20 -40 44c0 26 17 45 41 45c25 0 41 -19 41 -45c0 -24 -16 -44 -42 -44zM556 248h-516v40h516v-40zM297 48c-24 0 -41 20 -40 44c0 26 17 45 41 45c25 0 41 -19 41 -45c0 -24 -16 -44 -42 -44z" />
    <glyph glyph-name="brokenbar" unicode="&#xa6;" horiz-adv-x="212" 
d="M84 174h43v-350h-43v350zM84 674h43v-350h-43v350z" />
    <glyph glyph-name="degree" unicode="&#xb0;" horiz-adv-x="294" 
d="M152 686c77 0 119 -58 119 -120c0 -78 -61 -126 -122 -126c-72 0 -119 56 -119 119c0 73 54 127 122 127zM149 653c-56 0 -81 -51 -81 -93c0 -49 35 -87 82 -87c48 0 83 39 83 91c0 36 -20 89 -84 89z" />
    <glyph glyph-name="thorn" unicode="&#xfe;" horiz-adv-x="552" 
d="M80 665h48v-271h2c34 58 90 97 175 97c121 0 206 -101 206 -243c0 -175 -106 -259 -220 -259c-67 0 -126 31 -161 88h-2v-275h-48v863zM128 278v-92c0 -14 2 -30 6 -43c22 -71 86 -114 160 -114c100 0 169 84 169 218c0 108 -62 204 -169 204c-67 0 -133 -46 -157 -119
c-5 -16 -9 -36 -9 -54z" />
    <glyph glyph-name="threequarters" unicode="&#xbe;" horiz-adv-x="715" 
d="M68 599l-15 30c20 15 55 32 98 32c81 0 110 -47 110 -92c0 -38 -26 -73 -73 -90v-2c54 -9 90 -49 91 -100c0 -57 -47 -116 -144 -116c-45 0 -84 14 -103 27l16 33c13 -10 51 -26 90 -26c74 0 98 47 97 81c0 61 -60 83 -119 83h-25v32h27c39 0 99 21 100 77
c0 28 -19 59 -70 59c-37 0 -67 -18 -80 -28zM197 -11h-40l386 672h40zM627 0h-41v110h-203v25l207 260h37v-251h65v-34h-65v-110zM586 144v145c0 23 1 41 3 56h-2c-13 -20 -21 -34 -31 -48l-123 -152v-1h153z" />
    <glyph glyph-name="twosuperior" unicode="&#xb2;" horiz-adv-x="286" 
d="M11 442v25l64 61c86 81 131 136 131 192c0 44 -25 82 -86 82c-37 0 -66 -20 -83 -33l-15 27c23 22 63 41 108 41c91 0 120 -63 120 -107c0 -78 -58 -139 -144 -217l-35 -33v-2h185v-36h-245z" />
    <glyph glyph-name="registered" unicode="&#xae;" horiz-adv-x="395" 
d="M169 505v-70h-31v167c17 3 35 5 58 5c28 0 42 -5 52 -13c10 -7 17 -20 17 -36c0 -20 -15 -33 -32 -39v-2c14 -6 22 -19 27 -41c5 -25 9 -35 13 -41h-32c-5 6 -9 21 -14 43c-4 19 -15 27 -38 27h-20zM169 581v-52h21c22 0 43 7 43 26c0 16 -11 28 -40 28
c-12 0 -19 -1 -24 -2zM199 682c90 0 160 -70 160 -159c0 -91 -70 -161 -161 -161s-163 70 -163 161c0 89 72 159 164 159zM197 654c-72 0 -127 -59 -127 -131c0 -74 55 -132 129 -132c71 -1 125 58 125 131s-54 132 -127 132z" />
    <glyph glyph-name="minus" unicode="&#x2212;" horiz-adv-x="596" 
d="M40 287h516v-40h-516v40z" />
    <glyph glyph-name="eth" unicode="&#xf0;" horiz-adv-x="521" 
d="M256 29c102 0 172 90 172 214c0 71 -10 115 -41 152c-25 29 -65 56 -128 56c-121 0 -170 -122 -170 -214c0 -118 74 -208 167 -208zM121 525l-14 33l123 60c-30 24 -71 47 -111 67l22 36c45 -23 91 -51 130 -81l122 61l16 -34l-107 -53c58 -48 102 -104 131 -165
c28 -56 44 -121 44 -199c0 -185 -115 -261 -222 -261c-124 0 -214 97 -214 246c0 163 110 256 217 256c47 0 92 -10 139 -57l2 2c-32 58 -76 109 -136 157z" />
    <glyph glyph-name="multiply" unicode="&#xd7;" horiz-adv-x="596" 
d="M40 496l30 30l228 -232l227 232l31 -30l-228 -233l227 -233l-30 -30l-227 232l-228 -232l-30 30l228 233z" />
    <glyph glyph-name="threesuperior" unicode="&#xb3;" horiz-adv-x="279" 
d="M45 776l-15 31c20 14 56 31 99 31c80 0 109 -46 109 -91c0 -39 -26 -74 -73 -92v-2c54 -9 90 -49 89 -99c0 -57 -46 -116 -143 -116c-45 0 -84 14 -103 27l15 33c14 -10 52 -26 90 -26c74 0 99 47 98 81c-1 60 -60 83 -118 83h-25v32h27c39 0 99 21 100 77
c0 28 -20 59 -70 59c-36 0 -67 -17 -80 -28z" />
    <glyph glyph-name="copyright" unicode="&#xa9;" horiz-adv-x="677" 
d="M341 648c168 0 297 -138 297 -308c0 -172 -129 -310 -298 -310c-170 0 -301 138 -301 310c0 170 131 308 302 308zM339 616c-148 0 -260 -120 -260 -280c0 -155 112 -274 261 -274c146 -2 258 119 258 278c0 156 -112 276 -259 276zM474 494l-10 -31c-14 8 -49 24 -99 24
c-103 0 -149 -68 -149 -150s49 -151 151 -151c41 0 79 11 103 27l10 -29c-35 -24 -82 -31 -123 -31c-115 0 -182 80 -182 181c0 113 89 186 189 186c54 0 96 -15 110 -26z" />
    <glyph glyph-name="Aacute" unicode="&#xc1;" horiz-adv-x="585" 
d="M428 236h-266l-83 -236h-49l244 674h46l242 -674h-49zM177 276h237l-82 225c-17 47 -26 81 -35 119h-3c-9 -39 -20 -74 -35 -117zM355 823h73l-131 -113h-40z" />
    <glyph glyph-name="Acircumflex" unicode="&#xc2;" horiz-adv-x="585" 
d="M428 236h-266l-83 -236h-49l244 674h46l242 -674h-49zM177 276h237l-82 225c-17 47 -26 81 -35 119h-3c-9 -39 -20 -74 -35 -117zM280 819h38l107 -109h-53l-72 74h-2l-72 -74h-50z" />
    <glyph glyph-name="Adieresis" unicode="&#xc4;" horiz-adv-x="585" 
d="M428 236h-266l-83 -236h-49l244 674h46l242 -674h-49zM177 276h237l-82 225c-17 47 -26 81 -35 119h-3c-9 -39 -20 -74 -35 -117zM210 723c-22 0 -36 18 -36 40c0 21 16 40 37 40c22 0 37 -18 37 -40s-13 -40 -38 -40zM382 723c-22 0 -36 18 -36 40c0 21 16 40 37 40
c22 0 37 -18 37 -40s-13 -40 -38 -40z" />
    <glyph glyph-name="Agrave" unicode="&#xc0;" horiz-adv-x="585" 
d="M428 236h-266l-83 -236h-49l244 674h46l242 -674h-49zM177 276h237l-82 225c-17 47 -26 81 -35 119h-3c-9 -39 -20 -74 -35 -117zM165 823h73l98 -113h-40z" />
    <glyph glyph-name="Aring" unicode="&#xc5;" horiz-adv-x="585" 
d="M428 236h-266l-83 -236h-49l244 674h46l242 -674h-49zM177 276h237l-82 225c-17 47 -26 81 -35 119h-3c-9 -39 -20 -74 -35 -117zM298 867c52 0 89 -38 89 -86c0 -47 -40 -83 -90 -83c-52 0 -90 37 -90 83c0 47 37 86 91 86zM296 839c-30 0 -49 -27 -49 -58
c0 -27 21 -54 50 -54s50 25 50 56s-21 56 -51 56z" />
    <glyph glyph-name="Atilde" unicode="&#xc3;" horiz-adv-x="585" 
d="M429 236h-267l-83 -236h-49l244 674h46l243 -674h-50zM177 276h237l-82 225c-17 47 -26 81 -35 119h-3c-9 -39 -20 -74 -35 -117zM215 716h-33c-1 46 22 86 62 86c20 0 34 -8 57 -21c16 -8 33 -17 50 -17c15 0 25 6 27 37h33c0 -46 -18 -80 -60 -80c-18 0 -35 7 -59 20
c-20 10 -35 19 -50 19c-18 0 -24 -19 -27 -44z" />
    <glyph glyph-name="Ccedilla" unicode="&#xc7;" horiz-adv-x="578" 
d="M524 62l14 -38c-33 -17 -97 -34 -186 -34l-29 -44c38 -5 69 -32 69 -70c0 -52 -44 -74 -93 -74c-23 0 -47 7 -62 15l12 35c15 -8 32 -13 54 -13c25 0 46 11 46 35c0 30 -35 41 -77 46l43 72c-147 16 -278 121 -278 341c0 200 129 352 342 352c86 0 135 -19 156 -30
l-15 -40c-35 17 -84 29 -141 29c-181 0 -292 -118 -292 -312c0 -183 104 -301 284 -301c58 0 114 12 153 31z" />
    <glyph glyph-name="Eacute" unicode="&#xc9;" horiz-adv-x="466" 
d="M398 375v-40h-269v-295h301v-40h-349v674h333v-40h-285v-259h269zM310 823h73l-131 -113h-40z" />
    <glyph glyph-name="Ecircumflex" unicode="&#xca;" horiz-adv-x="466" 
d="M398 375v-40h-269v-295h301v-40h-349v674h333v-40h-285v-259h269zM224 819h38l107 -109h-53l-72 74h-2l-72 -74h-50z" />
    <glyph glyph-name="Edieresis" unicode="&#xcb;" horiz-adv-x="466" 
d="M398 375v-40h-269v-295h301v-40h-349v674h333v-40h-285v-259h269zM158 726c-22 0 -36 18 -36 40c0 21 16 40 37 40c22 0 37 -18 37 -40s-13 -40 -38 -40zM330 726c-22 0 -36 18 -36 40c0 21 16 40 38 40s36 -18 36 -40s-13 -40 -38 -40z" />
    <glyph glyph-name="Egrave" unicode="&#xc8;" horiz-adv-x="466" 
d="M398 375v-40h-269v-295h301v-40h-349v674h333v-40h-285v-259h269zM124 823h73l98 -113h-40z" />
    <glyph glyph-name="Iacute" unicode="&#xcd;" horiz-adv-x="211" 
d="M81 674h48v-674h-48v674zM164 823h73l-131 -113h-40z" />
    <glyph glyph-name="Icircumflex" unicode="&#xce;" horiz-adv-x="211" 
d="M81 674h48v-674h-48v674zM86 819h38l107 -109h-53l-72 74h-2l-72 -74h-50z" />
    <glyph glyph-name="Idieresis" unicode="&#xcf;" horiz-adv-x="211" 
d="M81 674h48v-674h-48v674zM19 726c-22 0 -36 18 -36 40c0 21 16 40 37 40c22 0 37 -18 37 -40s-13 -40 -38 -40zM191 726c-22 0 -36 18 -36 40c0 21 16 40 37 40c22 0 37 -18 37 -40s-13 -40 -38 -40z" />
    <glyph glyph-name="Igrave" unicode="&#xcc;" horiz-adv-x="211" 
d="M81 674h48v-674h-48v674zM-24 823h73l98 -113h-40z" />
    <glyph glyph-name="Ntilde" unicode="&#xd1;" horiz-adv-x="638" 
d="M128 0h-46v674h45l262 -398c55 -84 94 -147 127 -212l2 1c-7 91 -8 168 -8 274v335h46v-674h-44l-257 392c-50 78 -96 149 -131 218l-2 -1c5 -83 6 -156 6 -268v-341zM244 716h-33c-1 46 22 86 62 86c20 0 34 -8 57 -21c16 -8 33 -17 50 -17c15 0 25 6 27 37h33
c0 -46 -18 -80 -60 -80c-18 0 -35 7 -59 20c-20 10 -35 19 -50 19c-18 0 -24 -19 -27 -44z" />
    <glyph glyph-name="Oacute" unicode="&#xd3;" horiz-adv-x="671" 
d="M340 686c170 0 294 -133 294 -342c0 -238 -146 -355 -302 -355c-166 0 -295 131 -295 342c0 221 134 355 303 355zM337 646c-171 0 -250 -156 -250 -314c0 -152 88 -303 248 -303s249 145 249 312c0 143 -78 305 -247 305zM391 827h73l-131 -113h-40z" />
    <glyph glyph-name="Ocircumflex" unicode="&#xd4;" horiz-adv-x="671" 
d="M340 686c170 0 294 -133 294 -342c0 -238 -146 -355 -302 -355c-166 0 -295 131 -295 342c0 221 134 355 303 355zM337 646c-171 0 -250 -156 -250 -314c0 -152 88 -303 248 -303s249 145 249 312c0 143 -78 305 -247 305zM315 823h38l107 -109h-53l-72 74h-2l-72 -74
h-50z" />
    <glyph glyph-name="Odieresis" unicode="&#xd6;" horiz-adv-x="671" 
d="M340 686c170 0 294 -133 294 -342c0 -238 -146 -355 -302 -355c-166 0 -295 131 -295 342c0 221 134 355 303 355zM337 646c-171 0 -250 -156 -250 -314c0 -152 88 -303 248 -303s249 145 249 312c0 143 -78 305 -247 305zM248 726c-22 0 -36 18 -36 40c0 21 16 40 37 40
c22 0 37 -18 37 -40s-13 -40 -38 -40zM420 726c-22 0 -36 18 -36 40c0 21 16 40 37 40c22 0 37 -18 37 -40s-13 -40 -38 -40z" />
    <glyph glyph-name="Ograve" unicode="&#xd2;" horiz-adv-x="671" 
d="M340 686c170 0 294 -133 294 -342c0 -238 -146 -355 -302 -355c-166 0 -295 131 -295 342c0 221 134 355 303 355zM337 646c-171 0 -250 -156 -250 -314c0 -152 88 -303 248 -303s249 145 249 312c0 143 -78 305 -247 305zM206 827h73l98 -113h-40z" />
    <glyph glyph-name="Otilde" unicode="&#xd5;" horiz-adv-x="671" 
d="M340 686c170 0 294 -133 294 -342c0 -238 -146 -355 -302 -355c-166 0 -295 131 -295 342c0 221 134 355 303 355zM337 646c-171 0 -250 -156 -250 -314c0 -152 88 -303 248 -303s249 145 249 312c0 143 -78 305 -247 305zM253 720h-33c-1 46 22 86 63 86
c19 0 34 -8 57 -21c16 -8 33 -17 50 -17c15 0 25 6 27 37h33c0 -46 -18 -80 -60 -80c-18 0 -35 7 -60 20c-19 10 -34 19 -50 19c-18 0 -24 -18 -27 -44z" />
    <glyph glyph-name="Scaron" unicode="&#x160;" horiz-adv-x="464" 
d="M42 35l18 39c38 -26 91 -44 147 -44c101 0 163 57 163 140c0 76 -39 120 -137 158c-108 38 -173 94 -173 186c0 99 81 171 196 171c63 0 111 -16 134 -32l-18 -40c-18 13 -61 32 -119 32c-109 0 -146 -70 -146 -123c0 -75 43 -113 140 -151c111 -45 170 -95 170 -196
c0 -98 -70 -186 -214 -186c-58 0 -126 19 -161 46zM264 714h-38l-107 109h53l73 -74h2l71 74h50z" />
    <glyph glyph-name="Uacute" unicode="&#xda;" horiz-adv-x="626" 
d="M81 674h48v-407c0 -171 80 -237 179 -237c112 0 189 72 189 237v407h48v-402c0 -207 -112 -283 -239 -283c-118 0 -225 69 -225 275v410zM378 823h73l-131 -113h-40z" />
    <glyph glyph-name="Ucircumflex" unicode="&#xdb;" horiz-adv-x="626" 
d="M81 674h48v-407c0 -171 80 -237 179 -237c112 0 189 72 189 237v407h48v-402c0 -207 -112 -283 -239 -283c-118 0 -225 69 -225 275v410zM296 819h38l107 -109h-53l-72 74h-2l-72 -74h-50z" />
    <glyph glyph-name="Udieresis" unicode="&#xdc;" horiz-adv-x="626" 
d="M81 674h48v-407c0 -171 80 -237 179 -237c112 0 189 72 189 237v407h48v-402c0 -207 -112 -283 -239 -283c-118 0 -225 69 -225 275v410zM226 726c-22 0 -36 18 -36 40c0 21 16 40 37 40c22 0 37 -18 37 -40s-13 -40 -38 -40zM398 726c-22 0 -36 18 -36 40
c0 21 16 40 37 40c22 0 37 -18 37 -40s-13 -40 -38 -40z" />
    <glyph glyph-name="Ugrave" unicode="&#xd9;" horiz-adv-x="626" 
d="M81 674h48v-407c0 -171 80 -237 179 -237c112 0 189 72 189 237v407h48v-402c0 -207 -112 -283 -239 -283c-118 0 -225 69 -225 275v410zM189 823h73l98 -113h-40z" />
    <glyph glyph-name="Yacute" unicode="&#xdd;" horiz-adv-x="503" 
d="M277 0h-48v292l-214 382h53l111 -201c29 -53 53 -97 77 -145h2c20 45 48 92 78 146l115 200h53l-227 -383v-291zM320 815h73l-131 -113h-40z" />
    <glyph glyph-name="Ydieresis" unicode="&#x178;" horiz-adv-x="503" 
d="M277 0h-48v292l-214 382h53l111 -201c29 -53 53 -97 77 -145h2c20 45 48 92 78 146l115 200h53l-227 -383v-291zM174 716c-22 0 -36 18 -36 40c0 21 16 40 37 40c22 0 37 -18 37 -40s-13 -40 -38 -40zM346 716c-22 0 -36 18 -36 40c0 21 16 40 37 40c22 0 37 -18 37 -40
s-13 -40 -38 -40z" />
    <glyph glyph-name="Zcaron" unicode="&#x17d;" horiz-adv-x="539" 
d="M34 0v31l406 600v3h-373v40h434v-32l-407 -599v-3h412v-40h-472zM301 710h-38l-107 109h53l73 -74h2l71 74h50z" />
    <glyph glyph-name="aacute" unicode="&#xe1;" horiz-adv-x="454" 
d="M380 302v-188c0 -38 1 -77 7 -114h-44l-7 69h-2c-24 -37 -77 -80 -154 -80c-97 0 -141 68 -141 132c0 111 97 178 293 176v13c0 47 -9 142 -123 141c-42 0 -86 -11 -121 -36l-15 35c44 29 98 41 141 41c139 0 166 -104 166 -189zM332 154v103c-105 3 -243 -13 -243 -128
c0 -69 46 -100 96 -100c80 0 126 49 142 96c4 10 5 21 5 29zM272 688h70l-122 -138h-37z" />
    <glyph glyph-name="acircumflex" unicode="&#xe2;" horiz-adv-x="454" 
d="M380 302v-188c0 -38 1 -77 7 -114h-44l-7 69h-2c-24 -37 -77 -80 -154 -80c-97 0 -141 68 -141 132c0 111 97 178 293 176v13c0 47 -9 142 -123 141c-42 0 -86 -11 -121 -36l-15 35c44 29 98 41 141 41c139 0 166 -104 166 -189zM332 154v103c-105 3 -243 -13 -243 -128
c0 -69 46 -100 96 -100c80 0 126 49 142 96c4 10 5 21 5 29zM203 688h35l94 -138h-48l-62 99h-2l-63 -99h-45z" />
    <glyph glyph-name="adieresis" unicode="&#xe4;" horiz-adv-x="454" 
d="M380 302v-188c0 -38 1 -77 7 -114h-44l-7 69h-2c-24 -37 -77 -80 -154 -80c-97 0 -141 68 -141 132c0 111 97 178 293 176v13c0 47 -9 142 -123 141c-42 0 -86 -11 -121 -36l-15 35c44 29 98 41 141 41c139 0 166 -104 166 -189zM332 154v103c-105 3 -243 -13 -243 -128
c0 -69 46 -100 96 -100c80 0 126 49 142 96c4 10 5 21 5 29zM141 578c-22 0 -36 19 -36 39s17 39 38 39s37 -18 37 -39c0 -20 -14 -39 -39 -39zM312 578h-2c-22 0 -36 19 -36 39s17 39 38 39s37 -18 37 -39c0 -20 -14 -39 -37 -39z" />
    <glyph glyph-name="agrave" unicode="&#xe0;" horiz-adv-x="454" 
d="M380 302v-188c0 -38 1 -77 7 -114h-44l-7 69h-2c-24 -37 -77 -80 -154 -80c-97 0 -141 68 -141 132c0 111 97 178 293 176v13c0 47 -9 142 -123 141c-42 0 -86 -11 -121 -36l-15 35c44 29 98 41 141 41c139 0 166 -104 166 -189zM332 154v103c-105 3 -243 -13 -243 -128
c0 -69 46 -100 96 -100c80 0 126 49 142 96c4 10 5 21 5 29zM91 688h70l89 -138h-37z" />
    <glyph glyph-name="aring" unicode="&#xe5;" horiz-adv-x="454" 
d="M380 302v-188c0 -38 1 -77 7 -114h-44l-7 69h-2c-24 -37 -77 -80 -154 -80c-97 0 -141 68 -141 132c0 111 97 178 293 176v13c0 47 -9 142 -123 141c-42 0 -86 -11 -121 -36l-15 35c44 29 98 41 141 41c139 0 166 -104 166 -189zM332 154v103c-105 3 -243 -13 -243 -128
c0 -69 46 -100 96 -100c80 0 125 49 142 96c4 10 5 21 5 29zM225 536c-53 0 -93 39 -93 88c0 51 38 91 94 91c51 0 90 -39 90 -91c0 -50 -43 -88 -91 -88zM224 566c32 0 55 27 55 60s-23 59 -56 59c-31 0 -52 -28 -52 -61c0 -29 23 -58 53 -58z" />
    <glyph glyph-name="atilde" unicode="&#xe3;" horiz-adv-x="454" 
d="M380 302v-188c0 -38 1 -77 7 -114h-44l-7 69h-2c-24 -37 -77 -80 -154 -80c-97 0 -141 68 -141 132c0 111 97 178 293 176v13c0 47 -9 142 -123 141c-42 0 -86 -11 -121 -36l-15 35c44 29 98 41 141 41c139 0 166 -104 166 -189zM332 154v103c-105 3 -243 -13 -243 -128
c0 -69 46 -100 96 -100c80 0 126 49 142 96c4 10 5 21 5 29zM150 572h-34c-1 54 23 88 60 88c20 0 35 -10 60 -22c16 -9 29 -16 42 -16c15 0 26 9 28 41h33c0 -50 -17 -84 -60 -84c-18 0 -36 9 -56 20c-21 11 -34 18 -46 18c-17 0 -25 -18 -27 -45z" />
    <glyph glyph-name="ccedilla" unicode="&#xe7;" horiz-adv-x="446" 
d="M398 59l14 -38c-20 -10 -69 -30 -135 -31l-29 -44c36 -5 68 -30 68 -67c0 -54 -43 -77 -94 -77c-18 0 -44 7 -60 16l12 34c15 -9 32 -13 53 -13c26 0 48 9 48 35c-1 31 -35 41 -78 45l44 73c-120 12 -200 110 -200 243c0 152 104 256 247 256c59 0 107 -17 126 -30
l-17 -39c-24 13 -60 28 -114 28c-128 0 -194 -99 -194 -211c0 -126 79 -208 190 -208c56 0 94 16 119 28z" />
    <glyph glyph-name="eacute" unicode="&#xe9;" horiz-adv-x="485" 
d="M442 245h-354c0 -153 83 -214 183 -214c70 0 106 14 133 27l12 -37c-18 -10 -67 -31 -151 -31c-138 0 -224 100 -224 241c0 160 92 260 216 260c157 0 187 -148 187 -217c0 -13 0 -20 -2 -29zM90 283h304c1 67 -27 168 -143 168c-106 0 -152 -94 -161 -168zM306 688h70
l-122 -138h-37z" />
    <glyph glyph-name="ecircumflex" unicode="&#xea;" horiz-adv-x="485" 
d="M442 245h-354c0 -153 83 -214 183 -214c70 0 106 14 133 27l12 -37c-18 -10 -67 -31 -151 -31c-138 0 -224 100 -224 241c0 160 92 260 216 260c157 0 187 -148 187 -217c0 -13 0 -20 -2 -29zM90 283h304c1 67 -27 168 -143 168c-106 0 -152 -94 -161 -168zM236 688h36
l94 -138h-48l-63 99h-2l-62 -99h-45z" />
    <glyph glyph-name="edieresis" unicode="&#xeb;" horiz-adv-x="485" 
d="M442 245h-354c0 -153 83 -214 183 -214c70 0 106 14 133 27l12 -37c-18 -10 -67 -31 -151 -31c-138 0 -224 100 -224 241c0 160 92 260 216 260c157 0 187 -148 187 -217c0 -13 0 -20 -2 -29zM90 283h304c1 67 -27 168 -143 168c-106 0 -152 -94 -161 -168zM176 578h-2
c-22 0 -36 19 -36 39s17 39 38 39s37 -18 37 -39c0 -20 -14 -39 -37 -39zM346 578h-2c-22 0 -36 19 -36 39s17 39 38 39s37 -18 37 -39c0 -20 -14 -39 -37 -39z" />
    <glyph glyph-name="egrave" unicode="&#xe8;" horiz-adv-x="485" 
d="M442 245h-354c0 -153 83 -214 183 -214c70 0 106 14 133 27l12 -37c-18 -10 -67 -31 -151 -31c-138 0 -224 100 -224 241c0 160 92 260 216 260c157 0 187 -148 187 -217c0 -13 0 -20 -2 -29zM90 283h304c1 67 -27 168 -143 168c-106 0 -152 -94 -161 -168zM145 688h70
l89 -138h-37z" />
    <glyph glyph-name="iacute" unicode="&#xed;" horiz-adv-x="209" 
d="M129 0h-48v480h48v-480zM154 688h70l-122 -138h-37z" />
    <glyph glyph-name="icircumflex" unicode="&#xee;" horiz-adv-x="209" 
d="M129 0h-48v480h48v-480zM86 688h35l94 -138h-48l-62 99h-2l-63 -99h-45z" />
    <glyph glyph-name="idieresis" unicode="&#xef;" horiz-adv-x="209" 
d="M129 0h-48v480h48v-480zM21 578h-2c-22 0 -36 19 -36 39s17 39 38 39s37 -18 37 -39c0 -20 -14 -39 -37 -39zM190 578h-2c-22 0 -36 19 -36 39s17 39 38 39s37 -18 37 -39c0 -20 -14 -39 -37 -39z" />
    <glyph glyph-name="igrave" unicode="&#xec;" horiz-adv-x="209" 
d="M129 0h-48v480h48v-480zM-26 688h70l89 -138h-37z" />
    <glyph glyph-name="ntilde" unicode="&#xf1;" horiz-adv-x="536" 
d="M81 0v365c0 44 -1 77 -4 115h45l3 -87h2c26 54 87 98 165 98c46 0 168 -23 168 -203v-288h-48v284c0 87 -34 166 -133 166c-67 0 -125 -48 -144 -110c-3 -12 -6 -28 -6 -43v-297h-48zM190 573h-34c-1 53 23 87 60 87c20 0 35 -10 61 -22c16 -9 29 -16 42 -16
c15 0 26 9 28 41h33c0 -50 -17 -84 -60 -84c-18 0 -36 9 -57 20s-34 18 -46 18c-17 0 -25 -18 -27 -44z" />
    <glyph glyph-name="oacute" unicode="&#xf3;" horiz-adv-x="532" 
d="M268 491c133 0 223 -100 223 -246c0 -179 -123 -256 -230 -256c-124 0 -220 97 -220 247c0 164 108 255 227 255zM267 451c-123 0 -178 -109 -178 -212c0 -120 77 -210 175 -210c100 0 179 90 179 213c0 88 -49 209 -176 209zM310 688h70l-122 -138h-37z" />
    <glyph glyph-name="ocircumflex" unicode="&#xf4;" horiz-adv-x="532" 
d="M268 491c133 0 223 -100 223 -246c0 -179 -123 -256 -230 -256c-124 0 -220 97 -220 247c0 164 108 255 227 255zM267 451c-123 0 -178 -109 -178 -212c0 -120 77 -210 175 -210c100 0 179 90 179 213c0 88 -49 209 -176 209zM246 688h36l94 -138h-48l-63 99h-2l-62 -99
h-45z" />
    <glyph glyph-name="odieresis" unicode="&#xf6;" horiz-adv-x="532" 
d="M268 491c133 0 223 -100 223 -246c0 -179 -123 -256 -230 -256c-124 0 -220 97 -220 247c0 164 108 255 227 255zM267 451c-123 0 -178 -109 -178 -212c0 -120 77 -210 175 -210c100 0 179 90 179 213c0 88 -49 209 -176 209zM181 578h-2c-22 0 -36 19 -36 39
s17 39 38 39s37 -18 37 -39c0 -20 -14 -39 -37 -39zM351 578h-2c-22 0 -36 19 -36 39s17 39 38 39s37 -18 37 -39c0 -20 -14 -39 -37 -39z" />
    <glyph glyph-name="ograve" unicode="&#xf2;" horiz-adv-x="532" 
d="M268 491c133 0 223 -100 223 -246c0 -179 -123 -256 -230 -256c-124 0 -220 97 -220 247c0 164 108 255 227 255zM267 451c-123 0 -178 -109 -178 -212c0 -120 77 -210 175 -210c100 0 179 90 179 213c0 88 -49 209 -176 209zM152 688h70l89 -138h-37z" />
    <glyph glyph-name="otilde" unicode="&#xf5;" horiz-adv-x="532" 
d="M268 491c133 0 223 -100 223 -246c0 -179 -123 -256 -230 -256c-124 0 -220 97 -220 247c0 164 108 255 227 255zM267 451c-123 0 -178 -109 -178 -212c0 -120 77 -210 175 -210c100 0 179 90 179 213c0 88 -49 209 -176 209zM188 573h-34c-1 53 23 87 60 87
c20 0 35 -10 61 -22c16 -9 29 -16 42 -16c15 0 26 9 28 41h33c0 -50 -17 -84 -60 -84c-18 0 -36 9 -57 20s-34 18 -46 18c-17 0 -25 -18 -27 -44z" />
    <glyph glyph-name="scaron" unicode="&#x161;" horiz-adv-x="373" 
d="M44 23l17 40c26 -16 65 -33 108 -33c76 0 112 41 112 91c0 53 -32 81 -101 109c-79 30 -122 73 -122 131c0 69 55 130 148 130c44 0 82 -13 106 -30l-18 -39c-17 12 -48 29 -96 29c-61 0 -93 -39 -93 -83c0 -50 34 -72 99 -99c78 -30 124 -69 124 -142
c0 -82 -64 -137 -162 -137c-46 0 -90 13 -122 33zM212 550h-38l-94 138h48l64 -100h2l64 100h45z" />
    <glyph glyph-name="uacute" unicode="&#xfa;" horiz-adv-x="531" 
d="M451 480v-363c0 -42 1 -80 4 -117h-45l-3 86h-2c-24 -45 -79 -97 -164 -97c-61 0 -164 31 -164 212v279h48v-270c0 -104 32 -179 127 -179c70 0 121 49 142 97c5 15 9 34 9 53v299h48zM325 688h69l-122 -138h-37z" />
    <glyph glyph-name="ucircumflex" unicode="&#xfb;" horiz-adv-x="531" 
d="M451 480v-363c0 -42 1 -80 4 -117h-45l-3 86h-2c-24 -45 -79 -97 -164 -97c-61 0 -164 31 -164 212v279h48v-270c0 -104 32 -179 127 -179c70 0 121 49 142 97c5 15 9 34 9 53v299h48zM247 688h34l94 -138h-48l-62 99h-2l-63 -99h-45z" />
    <glyph glyph-name="udieresis" unicode="&#xfc;" horiz-adv-x="531" 
d="M451 480v-363c0 -42 1 -80 4 -117h-45l-3 86h-2c-24 -45 -79 -97 -164 -97c-61 0 -164 31 -164 212v279h48v-270c0 -104 32 -179 127 -179c70 0 121 49 142 97c5 15 9 34 9 53v299h48zM184 578h-2c-22 0 -36 19 -36 39s17 39 38 39s37 -18 37 -39c0 -20 -14 -39 -37 -39z
M352 578c-22 0 -36 19 -36 39s17 39 38 39s37 -18 37 -39c0 -20 -14 -39 -39 -39z" />
    <glyph glyph-name="ugrave" unicode="&#xf9;" horiz-adv-x="531" 
d="M451 480v-363c0 -42 1 -80 4 -117h-45l-3 86h-2c-24 -45 -79 -97 -164 -97c-61 0 -164 31 -164 212v279h48v-270c0 -104 32 -179 127 -179c70 0 121 49 142 97c5 15 9 34 9 53v299h48zM145 688h70l89 -138h-37z" />
    <glyph glyph-name="yacute" unicode="&#xfd;" horiz-adv-x="440" 
d="M11 480h51l126 -314c13 -34 26 -73 35 -103h2c10 29 22 67 37 106l117 311h51l-144 -358c-58 -149 -99 -238 -162 -293c-38 -32 -72 -46 -84 -50l-15 40c24 9 56 26 84 53c24 24 56 64 80 121c4 10 6 16 6 21c0 4 -2 11 -6 21zM278 688h70l-122 -138h-37z" />
    <glyph glyph-name="ydieresis" unicode="&#xff;" horiz-adv-x="440" 
d="M11 480h51l126 -314c13 -34 26 -73 35 -103h2c10 29 22 67 37 106l117 311h51l-144 -358c-58 -149 -99 -238 -162 -293c-38 -32 -72 -46 -84 -50l-15 40c24 9 56 26 84 53c24 24 56 64 80 121c4 10 6 16 6 21c0 4 -2 11 -6 21zM147 578h-2c-22 0 -36 19 -36 39
s17 39 38 39s37 -18 37 -39c0 -20 -14 -39 -37 -39zM317 578h-2c-22 0 -36 19 -36 39s17 39 38 39s37 -18 37 -39c0 -20 -14 -39 -37 -39z" />
    <glyph glyph-name="zcaron" unicode="&#x17e;" horiz-adv-x="403" 
d="M16 0v29l259 341c18 23 36 45 55 69v2h-293v39h351l-1 -32l-259 -341c-17 -22 -33 -44 -51 -66v-2h312v-39h-373zM240 550h-39l-94 138h48l64 -100h2l64 100h45z" />
    <glyph glyph-name="Dcroat" unicode="&#x110;" horiz-adv-x="651" 
d="M-5 322v39h89v306c52 9 109 15 173 15c123 0 216 -33 272 -92c54 -56 84 -132 84 -237c0 -99 -27 -189 -88 -256c-59 -65 -161 -103 -291 -103c-52 0 -101 1 -150 6v322h-89zM341 361v-39h-209v-283c27 -4 66 -5 109 -5c216 0 323 121 323 320c2 171 -93 288 -310 288
c-52 0 -93 -5 -122 -11v-270h209z" />
    <glyph glyph-name="Eng" unicode="&#x14a;" horiz-adv-x="638" 
d="M128 0h-46v674h45l262 -398c55 -84 94 -147 127 -212l2 1c-7 91 -8 168 -8 274v335h46v-642c0 -124 -49 -200 -172 -221l-8 39c89 16 131 63 137 150l-258 392c-50 78 -96 149 -131 218l-2 -1c5 -83 6 -156 6 -268v-341z" />
    <glyph glyph-name="Hbar" unicode="&#x126;" horiz-adv-x="630" 
d="M602 484h-53v-484h-48v330h-372v-330h-48v484h-53v38h53v152h48v-152h372v152h48v-152h53v-38zM501 370v114h-372v-114h372z" />
    <glyph glyph-name="Tbar" unicode="&#x166;" horiz-adv-x="465" 
d="M477 634h-220v-257h130v-38h-130v-339h-48v339h-130v38h130v257h-220v40h488v-40z" />
    <glyph glyph-name="uni021C" unicode="&#x21c;" horiz-adv-x="445" 
d="M55 -108l-7 40c198 32 309 130 309 254c0 89 -64 155 -165 153c-22 0 -56 -7 -91 -17l-7 37c124 30 207 98 208 180c0 64 -51 105 -125 106c-56 0 -118 -25 -138 -37l-11 33c23 17 92 45 155 45c102 0 167 -59 167 -143c0 -76 -58 -134 -126 -166v-3
c105 -7 182 -76 182 -184c0 -143 -121 -261 -351 -298z" />
    <glyph glyph-name="dcroat" unicode="&#x111;" horiz-adv-x="544" 
d="M540 559h-76v-447c0 -36 1 -78 4 -112h-43l-4 91h-2c-25 -53 -82 -102 -171 -102c-119 0 -207 99 -207 242c-1 160 98 260 216 260c83 0 136 -43 157 -85h2v153h-208v38h208v113h48v-113h76v-38zM416 194v96c0 13 -1 31 -5 44c-16 64 -73 117 -151 117
c-105 0 -171 -91 -171 -215c0 -108 54 -207 168 -207c69 0 134 46 154 125c4 13 5 25 5 40z" />
    <glyph glyph-name="eng" unicode="&#x14b;" horiz-adv-x="536" 
d="M81 0v365c0 44 -1 77 -4 115h45l3 -87h2c26 54 87 98 165 98c46 0 168 -23 168 -203v-229c0 -139 -78 -211 -179 -228l-9 41c92 19 140 81 140 189v223c0 87 -34 166 -133 166c-67 0 -125 -48 -144 -110c-3 -12 -6 -28 -6 -43v-297h-48z" />
    <glyph glyph-name="hbar" unicode="&#x127;" horiz-adv-x="536" 
d="M460 0h-48v284c0 87 -34 165 -132 165c-68 0 -124 -49 -145 -108c-5 -15 -6 -28 -6 -48v-293h-48v559h-76v38h76v113h48v-113h200v-38h-200v-165h2c14 27 37 53 65 69c28 18 61 28 97 28c45 0 167 -23 167 -202v-289z" />
    <glyph glyph-name="kgreenlandic" unicode="&#x138;" horiz-adv-x="423" 
d="M128 480v-231h2c12 15 31 37 46 53l170 178h58l-194 -199l221 -281h-58l-196 252l-49 -52v-200h-48v480h48z" />
    <glyph glyph-name="napostrophe" unicode="&#x149;" horiz-adv-x="536" 
d="M81 0v365c0 44 -1 77 -4 115h45l3 -87h2c26 54 87 98 165 98c46 0 168 -23 168 -203v-288h-48v284c0 87 -34 166 -133 166c-67 0 -125 -48 -144 -110c-3 -12 -6 -28 -6 -43v-297h-48zM44 543l-20 22c17 14 41 37 41 79c0 24 -16 47 -37 61l43 12c17 -10 37 -36 37 -69
c0 -65 -50 -95 -64 -105z" />
    <glyph glyph-name="tbar" unicode="&#x167;" horiz-adv-x="309" 
d="M284 441h-137v-142h108v-38h-108v-132c0 -61 19 -99 70 -99c25 0 43 3 55 7l6 -36c-16 -7 -38 -12 -67 -12c-35 0 -64 11 -82 34c-22 25 -30 66 -30 115v123h-69v38h69v142h-81v39h81v88l48 18v-106h137v-39z" />
    <glyph glyph-name="uni021D" unicode="&#x21d;" horiz-adv-x="399" 
d="M40 -209l-4 39c27 4 289 38 289 215c0 74 -52 128 -146 128c-31 0 -62 -8 -90 -15l-7 37c117 29 193 74 193 157c0 62 -45 99 -116 99c-54 0 -105 -28 -126 -40l-12 33c32 20 87 47 147 47c91 0 155 -54 155 -133c0 -71 -49 -124 -108 -147v-3c92 -8 158 -66 158 -156
c0 -108 -84 -233 -333 -261z" />
    <glyph glyph-name="IJ" unicode="&#x132;" horiz-adv-x="556" 
d="M81 674h48v-674h-48v674zM434 219v455h48v-466c0 -172 -86 -219 -182 -219c-31 0 -65 8 -82 16l10 38c17 -7 41 -13 71 -13c86 0 135 39 135 189z" />
    <glyph glyph-name="ij" unicode="&#x133;" horiz-adv-x="423" 
d="M129 0h-48v480h48v-480zM105 659c22 0 38 -19 38 -42c0 -22 -15 -41 -40 -41c-22 0 -37 19 -37 41s17 42 39 42zM166 -209l-6 39c42 2 78 15 100 40c25 30 36 68 36 195v415h48v-447c0 -86 -10 -145 -51 -190c-35 -38 -95 -51 -127 -52zM321 659c22 0 37 -20 37 -42
c0 -21 -14 -41 -40 -41c-22 0 -37 20 -37 41c0 22 17 42 40 42z" />
    <glyph glyph-name="zero.slash" unicode="&#xf638;" horiz-adv-x="488" 
d="M121 124l228 440c-25 37 -59 57 -106 57c-94 0 -155 -120 -156 -292c-1 -83 11 -153 34 -205zM371 523l-227 -440c25 -35 59 -54 97 -54c110 0 159 123 159 300c0 76 -9 143 -29 194zM445 654l-47 -80c32 -53 51 -133 51 -240c0 -233 -83 -345 -212 -345
c-42 0 -82 16 -116 51l-34 -64l-36 22l44 76c-34 54 -56 135 -57 248c-1 236 103 339 213 339c47 0 88 -17 121 -51l37 66z" />
    <glyph glyph-name="Euro" unicode="&#x20ac;" horiz-adv-x="488" 
d="M466 67l13 -35c-30 -22 -79 -43 -145 -43c-71 0 -133 26 -178 73s-74 114 -82 198h-61v37h58v13c0 19 1 37 2 54h-60v37h65c12 80 44 144 91 189c46 45 103 71 176 71c59 0 101 -19 124 -33l-15 -37c-26 17 -68 30 -113 30c-58 0 -103 -20 -139 -54
c-38 -37 -65 -96 -76 -166h298v-37h-303c-1 -15 -2 -32 -2 -49v-18h305v-37h-302c8 -75 33 -131 68 -168c39 -42 92 -62 149 -62s102 22 127 37z" />
    <glyph glyph-name="Aringacute" unicode="&#x1fa;" horiz-adv-x="585" 
d="M301 691c-49 0 -80 30 -80 70c0 39 31 72 81 72c47 0 79 -32 79 -72s-34 -70 -80 -70zM300 719c27 0 45 17 45 43c0 24 -18 43 -46 43c-27 0 -43 -21 -43 -44s19 -42 44 -42zM367 935h82l-139 -83h-48zM429 236h-267l-83 -236h-49l244 674h46l243 -674h-49zM177 276h237
l-82 225c-17 47 -26 81 -35 119h-3c-9 -39 -20 -74 -35 -117z" />
    <glyph glyph-name="estimated" unicode="&#x212e;" horiz-adv-x="817" 
d="M782 316h-605c-3 0 -5 -1 -5 -4v-183c0 -8 4 -15 9 -21c57 -61 139 -99 229 -99c96 0 182 43 240 111h55c-68 -79 -176 -131 -296 -131c-206 0 -374 150 -374 336s168 336 374 336s373 -150 373 -336v-9zM646 340v184c0 9 -4 16 -10 22c-58 58 -138 95 -226 95
c-90 0 -170 -38 -228 -98c-6 -6 -10 -14 -10 -23v-180c0 -3 2 -5 5 -5h464c3 0 5 2 5 5z" />
    <glyph glyph-name="zero.oldstyle" unicode="&#xf730;" horiz-adv-x="512" 
d="M254 -11c-101 0 -209 78 -209 252c0 170 108 252 210 252s211 -78 211 -252c0 -169 -108 -252 -212 -252zM256 29c102 0 162 94 162 212s-60 212 -163 212c-102 0 -162 -94 -162 -212s60 -212 163 -212z" />
    <glyph glyph-name="one.oldstyle" unicode="&#xf731;" horiz-adv-x="331" 
d="M225 0h-46v440h-2l-140 -64l-11 36l156 70h43v-482z" />
    <glyph glyph-name="two.oldstyle" unicode="&#xf732;" horiz-adv-x="431" 
d="M399 0h-375v28l41 30c166 111 251 190 251 285c0 76 -53 113 -119 113c-58 0 -112 -28 -148 -56l-16 32c36 29 97 64 172 64c89 0 159 -53 159 -151c0 -97 -75 -169 -199 -260l-57 -43v-2c18 0 40 1 67 1h224v-41z" />
    <glyph glyph-name="three.oldstyle" unicode="&#xf733;" horiz-adv-x="410" 
d="M16 -89l7 37c23 -9 65 -17 104 -17c113 0 193 60 193 145c0 74 -68 119 -169 119c-24 0 -45 -1 -55 -3l-3 39l14 1c105 8 181 54 181 127c0 64 -46 94 -117 94c-54 0 -102 -23 -122 -35l-13 33c24 17 81 42 144 42c91 0 156 -48 156 -127c0 -69 -48 -117 -117 -139v-3
c80 -10 149 -58 149 -145c0 -110 -108 -187 -239 -187c-43 0 -94 10 -113 19z" />
    <glyph glyph-name="four.oldstyle" unicode="&#xf734;" horiz-adv-x="474" 
d="M456 62h-99v-174h-45v174h-296v32l302 398h39v-390h99v-40zM312 102v244c0 30 0 54 2 84h-3c-15 -28 -32 -56 -49 -80l-191 -246l1 -2h240z" />
    <glyph glyph-name="five.oldstyle" unicode="&#xf735;" horiz-adv-x="427" 
d="M44 -92l7 37c24 -8 63 -14 99 -14c95 0 185 54 185 154c0 34 -14 63 -37 86c-45 45 -139 57 -236 47l50 264h263l-8 -41h-220l-37 -182c81 4 172 -6 227 -59c30 -29 46 -72 46 -110c0 -125 -108 -198 -239 -198c-37 0 -77 6 -100 16z" />
    <glyph glyph-name="six.oldstyle" unicode="&#xf736;" horiz-adv-x="502" 
d="M412 600l5 -39c-183 -14 -287 -124 -312 -265h4c26 44 83 89 161 89c97 0 182 -74 182 -190c0 -136 -100 -206 -189 -206c-122 0 -209 95 -209 239c0 204 138 352 358 372zM263 28c69 0 141 54 141 164c0 95 -57 153 -142 153c-52 0 -95 -28 -115 -47
c-32 -33 -42 -61 -42 -102c0 -87 63 -168 158 -168z" />
    <glyph glyph-name="seven.oldstyle" unicode="&#xf737;" horiz-adv-x="399" 
d="M377 482v-33c-64 -172 -189 -400 -291 -557l-42 14c80 114 231 390 283 533v2h-310v41h360z" />
    <glyph glyph-name="eight.oldstyle" unicode="&#xf738;" horiz-adv-x="490" 
d="M307 315v-2c85 -28 137 -85 137 -154c0 -105 -95 -170 -200 -170c-116 0 -198 68 -198 162c0 75 55 128 133 163v2c-57 22 -108 65 -108 131c0 91 84 153 179 153c94 0 170 -60 170 -145c0 -55 -30 -101 -113 -140zM248 562c-68 0 -130 -40 -130 -110
c0 -63 52 -99 137 -121c66 18 117 57 117 124c0 71 -61 107 -124 107zM244 29c84 0 151 48 151 124c0 72 -57 117 -166 146c-79 -26 -134 -78 -134 -142c0 -76 55 -128 149 -128z" />
    <glyph glyph-name="nine.oldstyle" unicode="&#xf739;" horiz-adv-x="502" 
d="M83 -110l-5 39c174 8 285 109 312 247h-2c-20 -39 -80 -80 -155 -80c-95 0 -183 66 -183 191c0 116 87 206 199 206c101 0 197 -74 197 -230c0 -202 -134 -361 -363 -373zM241 135c62 0 117 37 138 77c12 17 19 40 19 68c0 107 -72 174 -153 174
c-69 0 -147 -50 -147 -162c0 -109 68 -157 143 -157z" />
    <glyph glyph-name="percent.oldstyle" unicode="&#xf642;" horiz-adv-x="773" 
d="M175 595c76 0 134 -62 134 -194c0 -138 -64 -204 -140 -204c-70 0 -136 60 -137 195c-1 140 71 203 143 203zM170 561c-60 0 -94 -74 -95 -165c-2 -92 34 -165 95 -165c68 0 96 74 96 167c0 88 -26 163 -96 163zM229 -13h-40l354 615h40zM607 392c76 0 134 -62 134 -194
c0 -138 -64 -204 -140 -204c-70 0 -136 60 -137 195c-1 140 71 203 143 203zM602 358c-60 0 -94 -74 -95 -165c-2 -92 35 -165 95 -165c68 0 96 74 96 167c0 88 -26 163 -96 163z" />
    <glyph glyph-name="zero.fitted" unicode="&#xf639;" horiz-adv-x="488" 
d="M251 661c114 0 198 -103 198 -327c0 -233 -83 -345 -213 -345c-102 0 -195 100 -198 333c0 236 103 339 213 339zM243 621c-89 0 -156 -108 -156 -300c0 -181 62 -292 155 -292c109 0 158 123 158 300c0 170 -46 292 -157 292z" />
    <glyph glyph-name="one.fitted" unicode="&#xf6dc;" horiz-adv-x="293" 
d="M148 0v601h-2l-106 -62l-12 38l123 73h44v-650h-47z" />
    <glyph glyph-name="two.fitted" unicode="&#xf63a;" horiz-adv-x="418" 
d="M390 0h-387v30l60 62c181 177 260 268 260 380c0 74 -31 147 -141 147c-62 0 -110 -32 -138 -56l-19 33c42 38 99 65 166 65c135 0 181 -102 181 -179c0 -128 -93 -231 -256 -392l-46 -47v-2h320v-41z" />
    <glyph glyph-name="three.fitted" unicode="&#xf63b;" horiz-adv-x="421" 
d="M8 33l19 38c23 -17 78 -41 140 -41c133 0 165 92 164 150c-1 109 -95 153 -192 153h-41v40h44c72 0 163 41 163 131c0 60 -34 116 -126 116c-50 0 -97 -23 -126 -45l-19 35c31 25 90 51 151 51c123 0 169 -77 169 -151c0 -66 -42 -124 -121 -154v-2
c81 -16 147 -78 147 -172c0 -97 -69 -193 -219 -193c-66 0 -125 23 -153 44z" />
    <glyph glyph-name="four.fitted" unicode="&#xf63c;" horiz-adv-x="477" 
d="M364 0h-46v191h-311v32l318 427h39v-419h99v-40h-99v-191zM64 231h254v263c0 31 1 61 3 90l-3 1c-20 -37 -35 -59 -51 -82l-203 -270v-2z" />
    <glyph glyph-name="five.fitted" unicode="&#xf63d;" horiz-adv-x="432" 
d="M381 650v-42h-245l-32 -208c15 2 31 4 60 4c43 0 83 -8 121 -28c51 -25 101 -83 101 -169c0 -130 -99 -218 -219 -218c-67 0 -122 21 -150 42l19 38c25 -17 74 -39 134 -39c94 0 169 70 168 168c-1 94 -59 165 -188 165c-39 0 -70 -3 -93 -7l42 294h282z" />
    <glyph glyph-name="six.fitted" unicode="&#xf63e;" horiz-adv-x="491" 
d="M394 661v-44c-19 0 -44 -1 -71 -7c-140 -29 -220 -149 -233 -277h2c30 48 89 91 169 91c119 0 193 -88 193 -209c0 -113 -70 -226 -202 -226c-117 0 -212 95 -212 273c0 131 46 232 107 295c46 49 111 83 182 96c24 6 48 8 65 8zM255 29c88 0 150 72 150 182
c0 114 -67 172 -156 172c-61 0 -120 -37 -150 -94c-6 -11 -11 -24 -11 -38c0 -131 59 -222 167 -222z" />
    <glyph glyph-name="seven.fitted" unicode="&#xf63f;" horiz-adv-x="380" 
d="M0 650h380v-35l-293 -615h-47l290 607v2h-330v41z" />
    <glyph glyph-name="eight.fitted" unicode="&#xf640;" horiz-adv-x="488" 
d="M177 343l-1 4c-79 34 -110 91 -110 147c0 98 80 167 185 167c109 0 173 -73 173 -156c0 -54 -26 -116 -115 -156v-4c92 -36 138 -97 138 -172c0 -110 -96 -184 -204 -184c-116 0 -202 74 -202 173c0 84 51 145 136 181zM243 29c95 0 155 58 155 137
c0 92 -62 133 -167 163c-92 -27 -141 -86 -141 -157c-4 -77 54 -143 153 -143zM246 622c-86 0 -133 -56 -133 -121c-1 -78 55 -117 143 -139c69 24 119 68 119 139c0 59 -36 121 -129 121z" />
    <glyph glyph-name="nine.fitted" unicode="&#xf641;" horiz-adv-x="494" 
d="M100 -11v44c19 -2 44 0 74 5c53 9 102 34 142 76c42 46 75 112 88 206l-3 -1c-41 -53 -99 -84 -168 -84c-122 0 -186 95 -186 197c0 120 82 229 209 229c111 0 196 -95 196 -271c0 -147 -52 -248 -112 -308c-42 -44 -101 -74 -152 -84c-35 -7 -66 -10 -88 -9zM246 621
c-89 0 -151 -79 -151 -186c0 -96 60 -159 146 -159c69 0 126 36 155 84c4 8 8 17 8 29c0 137 -51 232 -158 232z" />
    <glyph glyph-name="zero.slashfitted" unicode="&#xe008;" horiz-adv-x="488" 
d="M121 124l228 440c-25 37 -59 57 -106 57c-94 0 -155 -120 -156 -292c-1 -83 11 -153 34 -205zM371 523l-227 -440c25 -35 59 -54 97 -54c110 0 159 123 159 300c0 76 -9 143 -29 194zM445 654l-47 -80c32 -53 51 -133 51 -240c0 -233 -83 -345 -212 -345
c-42 0 -82 16 -116 51l-34 -64l-36 22l44 76c-34 54 -56 135 -57 248c-1 236 103 339 213 339c47 0 88 -17 121 -51l37 66z" />
    <glyph glyph-name="zero.taboldstyle" unicode="&#xf643;" horiz-adv-x="512" 
d="M254 -11c-101 0 -209 78 -209 252c0 170 108 252 210 252s211 -78 211 -252c0 -169 -108 -252 -212 -252zM256 29c102 0 162 94 162 212s-60 212 -163 212c-102 0 -162 -94 -162 -212s60 -212 163 -212z" />
    <glyph glyph-name="one.taboldstyle" unicode="&#xf644;" horiz-adv-x="512" 
d="M336 0h-46v440h-2l-194 -90l-12 36l211 96h43v-482z" />
    <glyph glyph-name="two.taboldstyle" unicode="&#xf645;" horiz-adv-x="512" 
d="M444 0h-375v28l41 30c166 111 251 190 251 285c0 76 -53 113 -119 113c-58 0 -112 -28 -148 -56l-16 32c36 29 97 64 172 64c89 0 159 -53 159 -151c0 -97 -75 -169 -199 -260l-57 -43v-2c18 0 40 1 67 1h224v-41z" />
    <glyph glyph-name="three.taboldstyle" unicode="&#xf646;" horiz-adv-x="512" 
d="M64 -89l7 37c23 -9 65 -17 104 -17c113 0 193 60 193 145c0 74 -68 119 -170 119c-24 0 -45 -1 -55 -3l-3 39l14 1c105 8 181 54 181 127c0 64 -46 94 -117 94c-54 0 -102 -23 -122 -35l-13 33c24 17 81 42 144 42c91 0 156 -48 156 -127c0 -69 -48 -117 -116 -139v-3
c80 -10 149 -58 149 -145c0 -110 -108 -187 -239 -187c-43 0 -94 10 -113 19z" />
    <glyph glyph-name="four.taboldstyle" unicode="&#xf647;" horiz-adv-x="512" 
d="M475 62h-99v-174h-45v174h-296v32l302 398h39v-390h99v-40zM331 102v244c0 30 0 54 2 84h-3c-15 -28 -32 -56 -49 -80l-191 -246l1 -2h240z" />
    <glyph glyph-name="five.taboldstyle" unicode="&#xf648;" horiz-adv-x="512" 
d="M83 -92l7 37c24 -8 63 -14 99 -14c95 0 185 54 185 154c0 34 -14 63 -37 86c-45 45 -139 57 -236 47l50 264h263l-8 -41h-220l-37 -182c81 4 172 -6 227 -59c30 -29 46 -72 46 -110c0 -125 -108 -198 -239 -198c-37 0 -77 6 -100 16z" />
    <glyph glyph-name="six.taboldstyle" unicode="&#xf649;" horiz-adv-x="512" 
d="M423 600l5 -39c-183 -14 -287 -124 -312 -265h4c26 44 83 89 161 89c97 0 182 -74 182 -190c0 -136 -100 -206 -189 -206c-122 0 -209 95 -209 239c0 204 138 352 358 372zM274 28c69 0 141 54 141 164c0 95 -57 153 -142 153c-52 0 -95 -28 -115 -47
c-32 -33 -42 -61 -42 -102c0 -87 63 -168 158 -168z" />
    <glyph glyph-name="seven.taboldstyle" unicode="&#xf64a;" horiz-adv-x="512" 
d="M431 482v-33c-64 -172 -189 -400 -291 -557l-42 14c80 114 231 390 283 533v2h-310v41h360z" />
    <glyph glyph-name="eight.taboldstyle" unicode="&#xf64b;" horiz-adv-x="512" 
d="M316 315l-1 -2c85 -28 137 -85 137 -154c0 -105 -95 -170 -199 -170c-117 0 -198 68 -198 162c0 75 55 128 133 163v2c-57 22 -108 65 -108 131c0 91 84 153 179 153c94 0 170 -60 170 -145c0 -55 -30 -101 -113 -140zM257 562c-68 0 -130 -40 -130 -110
c0 -63 52 -99 137 -121c66 18 117 57 117 124c0 71 -61 107 -124 107zM253 29c83 0 150 48 150 124c0 72 -57 117 -165 146c-79 -26 -134 -78 -134 -142c0 -76 55 -128 149 -128z" />
    <glyph glyph-name="nine.taboldstyle" unicode="&#xf64c;" horiz-adv-x="512" 
d="M92 -110l-5 39c174 8 285 109 312 247h-2c-20 -39 -80 -80 -155 -80c-95 0 -183 66 -183 191c0 116 87 206 199 206c101 0 197 -74 197 -230c0 -202 -134 -361 -363 -373zM250 135c62 0 117 37 138 77c12 17 19 40 19 68c0 107 -72 174 -153 174
c-69 0 -147 -50 -147 -162c0 -109 68 -157 143 -157z" />
    <glyph glyph-name="dollar.taboldstyle" unicode="&#xf653;" horiz-adv-x="512" 
d="M277 -77h-38v77c-48 0 -106 14 -138 36l20 36c25 -20 77 -34 125 -34c65 0 125 35 125 91c0 50 -39 75 -111 100c-96 33 -149 65 -149 131c0 64 57 112 135 119v81h38v-80c52 -2 94 -17 116 -31l-18 -36c-23 14 -66 29 -112 29c-62 0 -112 -32 -112 -77
c0 -44 29 -67 120 -97c91 -31 140 -72 140 -136c0 -61 -52 -120 -141 -131v-78z" />
    <glyph glyph-name="cent.taboldstyle" unicode="&#xf654;" horiz-adv-x="512" 
d="M387 114l12 -36c-15 -9 -55 -25 -103 -27v-71h-36v70c-105 10 -177 79 -177 192c0 112 75 188 177 201v65h36v-64c45 0 85 -13 104 -23l-14 -37c-22 13 -56 21 -101 21c-91 0 -154 -66 -154 -159c0 -101 66 -156 147 -156c53 0 88 13 109 24z" />
    <glyph glyph-name="Euro.taboldstyle" unicode="&#xf64e;" horiz-adv-x="512" 
d="M448 58l11 -36c-21 -14 -72 -33 -133 -33c-59 0 -122 19 -169 66c-31 30 -53 75 -61 123h-62v37h57c-1 12 -2 20 -2 26c0 12 1 26 3 41h-58v37h63c10 47 33 89 63 120c51 51 116 73 179 73c59 0 91 -16 117 -30l-14 -37c-26 15 -60 27 -112 27c-47 0 -94 -15 -134 -53
c-26 -25 -46 -61 -51 -100h274v-37h-279c-2 -12 -3 -24 -3 -33s0 -20 2 -34h280v-37h-275c8 -37 26 -71 48 -93c42 -39 84 -55 139 -55c53 0 93 15 117 28z" />
    <glyph glyph-name="florin.taboldstyle" unicode="&#xf64f;" horiz-adv-x="512" 
d="M133 296v38h104l7 54c14 118 64 213 175 212c27 0 48 -8 60 -14l-12 -37c-17 6 -34 11 -55 11c-80 0 -113 -83 -122 -170l-6 -56h131v-38h-136l-23 -191c-15 -134 -56 -217 -159 -217c-28 0 -52 7 -68 17l12 35c19 -9 38 -13 61 -13c69 0 97 71 108 167l23 202h-100z" />
    <glyph glyph-name="sterling.taboldstyle" unicode="&#xf651;" horiz-adv-x="512" 
d="M456 0h-390v30c70 31 108 80 108 132c0 19 -2 37 -6 55h-99v38h92c-4 24 -9 48 -9 72c0 113 74 184 170 184c50 0 83 -12 104 -24l-16 -38c-17 11 -48 22 -93 22c-79 0 -119 -54 -119 -144c0 -24 5 -49 9 -72h153v-38h-145c2 -15 4 -30 4 -43c0 -56 -24 -102 -68 -131v-2
h305v-41z" />
    <glyph glyph-name="yen.taboldstyle" unicode="&#xf652;" horiz-adv-x="512" 
d="M278 0h-46v121h-154v36h154v64h-154v36h134l-151 243h54l103 -170c16 -26 29 -48 38 -66h3c10 20 26 44 42 68l109 168h53l-164 -243h134v-36h-155v-64h155v-36h-155v-121z" />
    <glyph glyph-name="numbersign.taboldstyle" unicode="&#xf650;" horiz-adv-x="512" 
d="M189 216h112l20 165h-112zM162 0h-42l22 178h-83v38h88l21 165h-88v38h93l22 172h41l-22 -172h113l22 172h40l-21 -172h83v-38h-88l-21 -165h89v-38h-94l-22 -178h-42l23 178h-112z" />
    <glyph glyph-name="zero.superior" unicode="&#x2070;" horiz-adv-x="310" 
d="M151 438c-71 0 -127 66 -127 198c0 135 60 202 135 202c78 0 127 -68 127 -195c0 -133 -50 -205 -135 -205zM155 472c59 0 87 66 87 169c0 98 -26 163 -87 163c-52 0 -87 -64 -87 -163c0 -105 33 -169 87 -169z" />
    <glyph glyph-name="one.superior" horiz-adv-x="210" 
d="M142 443h-41v349h-2l-67 -34l-9 33l82 42h37v-390z" />
    <glyph glyph-name="two.superior" horiz-adv-x="286" 
d="M11 442v25l64 61c86 81 131 136 131 192c0 44 -25 82 -86 82c-37 0 -66 -20 -83 -33l-15 27c23 22 63 41 108 41c91 0 120 -63 120 -107c0 -78 -58 -139 -144 -217l-35 -33v-2h185v-36h-245z" />
    <glyph glyph-name="three.superior" horiz-adv-x="279" 
d="M45 776l-15 31c20 14 56 31 99 31c80 0 109 -46 109 -91c0 -39 -26 -74 -73 -92v-2c54 -9 90 -49 89 -99c0 -57 -46 -116 -143 -116c-45 0 -84 14 -103 27l15 33c14 -10 52 -26 90 -26c74 0 99 47 98 81c-1 60 -60 83 -118 83h-25v32h27c39 0 99 21 100 77
c0 28 -20 59 -70 59c-36 0 -67 -17 -80 -28z" />
    <glyph glyph-name="four.superior" unicode="&#x2074;" horiz-adv-x="319" 
d="M243 442h-42v111h-188v27l186 251h44v-244h58v-34h-58v-111zM201 587v141c0 21 2 40 3 56l-2 1c-12 -22 -22 -37 -33 -54l-108 -143v-1h140z" />
    <glyph glyph-name="five.superior" unicode="&#x2075;" horiz-adv-x="284" 
d="M248 830v-37h-151l-16 -107c9 1 18 2 34 2c29 0 56 -5 80 -18c31 -16 59 -50 59 -103c0 -76 -60 -131 -141 -131c-43 0 -78 13 -96 25l12 33c16 -10 48 -22 85 -22c53 0 96 36 96 90c0 53 -34 91 -113 91c-24 0 -43 -2 -57 -4l25 181h183z" />
    <glyph glyph-name="six.superior" unicode="&#x2076;" horiz-adv-x="313" 
d="M250 838l1 -37c-12 0 -27 0 -43 -3c-84 -14 -131 -80 -139 -149h1c18 26 53 50 99 50c72 0 120 -52 120 -125c0 -69 -47 -136 -129 -136c-78 0 -136 60 -136 164c0 77 28 138 66 175c31 31 74 50 121 57c15 2 29 4 39 4zM162 472c49 0 83 42 83 99c0 60 -37 94 -88 94
c-35 0 -68 -21 -84 -51c-3 -7 -6 -14 -6 -23c0 -68 33 -119 95 -119z" />
    <glyph glyph-name="seven.superior" unicode="&#x2077;" horiz-adv-x="271" 
d="M17 830h243v-29l-176 -358h-44l174 350v1h-197v36z" />
    <glyph glyph-name="eight.superior" unicode="&#x2078;" horiz-adv-x="308" 
d="M159 838c72 0 110 -45 110 -95c0 -32 -16 -69 -67 -91v-2c52 -20 82 -55 82 -101c0 -68 -59 -112 -131 -112c-77 0 -129 46 -129 105c0 49 29 83 80 104v3c-46 20 -65 53 -65 87c0 60 51 102 120 102zM154 470c53 0 85 32 85 74c0 50 -35 73 -93 89
c-50 -13 -78 -46 -78 -85c0 -41 31 -78 86 -78zM155 806c-48 0 -74 -31 -74 -66c0 -42 31 -64 80 -76c37 12 66 36 66 75c0 32 -19 67 -72 67z" />
    <glyph glyph-name="nine.superior" unicode="&#x2079;" horiz-adv-x="307" 
d="M58 437v37c11 -1 26 0 44 2c33 4 61 19 85 42c26 25 44 61 52 110h-2c-24 -30 -56 -46 -97 -46c-73 0 -116 54 -116 118c0 72 52 138 133 138c75 0 126 -60 126 -164c0 -86 -31 -147 -68 -183c-29 -27 -69 -45 -106 -50c-20 -3 -38 -5 -51 -4zM150 804
c-49 0 -83 -44 -83 -102c0 -50 33 -86 82 -86c39 0 70 19 85 45c3 4 5 10 5 18c0 71 -27 125 -89 125z" />
    <glyph glyph-name="period.superior" unicode="&#xf6e8;" horiz-adv-x="106" 
d="M51 436c-17 0 -30 15 -30 34s14 33 32 33s31 -14 31 -33s-12 -34 -33 -34z" />
    <glyph glyph-name="comma.superior" unicode="&#xf6e2;" horiz-adv-x="106" 
d="M36 372l-32 -4c12 32 28 96 34 137l51 6c-13 -49 -39 -115 -53 -139z" />
    <glyph glyph-name="dollar.superior" unicode="&#xf6e4;" horiz-adv-x="295" 
d="M161 392h-32v60c-34 0 -69 11 -91 27l14 34c21 -15 51 -27 83 -27c46 0 77 27 77 64c0 35 -25 56 -70 74c-62 25 -98 53 -98 103c0 48 34 85 89 93v62h33v-60c35 -1 60 -11 75 -22l-13 -33c-12 8 -37 21 -75 21c-49 0 -67 -30 -67 -56c0 -32 22 -48 76 -71
c60 -25 92 -55 92 -108c0 -45 -32 -90 -93 -99v-62z" />
    <glyph glyph-name="cent.superior" unicode="&#xf6e0;" horiz-adv-x="305" 
d="M191 433h-33v62c-40 4 -66 18 -88 41c-21 23 -35 58 -35 101c0 79 50 137 123 147v61h33v-60c30 0 55 -9 69 -17l-11 -33c-13 7 -34 16 -68 16c-62 0 -103 -50 -103 -112c0 -69 44 -110 101 -110c35 0 58 9 72 15l9 -30c-11 -7 -37 -18 -69 -20v-61z" />
    <glyph glyph-name="hyphen.superior" unicode="&#xf6e6;" horiz-adv-x="181" 
d="M18 642h145v-34h-145v34z" />
    <glyph glyph-name="parenleft.superior" unicode="&#x207d;" horiz-adv-x="166" 
d="M121 868h36c-47 -60 -80 -136 -80 -245c0 -106 34 -181 80 -242h-36c-40 50 -82 125 -82 242s42 193 82 245z" />
    <glyph glyph-name="parenright.superior" unicode="&#x207e;" horiz-adv-x="166" 
d="M45 381h-36c46 60 80 136 80 244c0 107 -34 182 -80 243h36c39 -51 82 -126 82 -243s-43 -193 -82 -244z" />
    <glyph glyph-name="zero.inferior" unicode="&#x2080;" horiz-adv-x="310" 
d="M151 -152c-71 0 -127 66 -127 198c0 135 60 202 135 202c78 0 127 -68 127 -195c0 -133 -50 -205 -135 -205zM155 -118c59 0 87 66 87 169c0 98 -26 163 -87 163c-52 0 -87 -64 -87 -163c0 -105 33 -169 87 -169z" />
    <glyph glyph-name="one.inferior" unicode="&#x2081;" horiz-adv-x="210" 
d="M142 -147h-41v350h-2l-67 -35l-9 34l82 41h37v-390z" />
    <glyph glyph-name="two.inferior" unicode="&#x2082;" horiz-adv-x="286" 
d="M11 -147v25l64 61c86 81 131 136 131 191c0 44 -25 83 -86 83c-37 0 -66 -20 -83 -33l-15 27c23 22 63 41 108 41c91 0 120 -63 120 -108c0 -77 -58 -138 -144 -216l-35 -33v-2h185v-36h-245z" />
    <glyph glyph-name="three.inferior" unicode="&#x2083;" horiz-adv-x="279" 
d="M45 186l-15 31c20 14 56 31 99 31c80 0 109 -46 109 -91c0 -39 -26 -74 -73 -91v-2c54 -9 90 -49 89 -100c0 -57 -46 -116 -143 -116c-45 0 -84 14 -103 27l15 33c14 -10 52 -26 90 -26c74 0 99 47 98 81c-1 61 -60 83 -118 83h-25v32h27c39 0 99 21 100 77
c0 28 -20 59 -70 59c-36 0 -67 -17 -80 -28z" />
    <glyph glyph-name="four.inferior" unicode="&#x2084;" horiz-adv-x="319" 
d="M243 -147h-42v110h-188v27l186 252h44v-245h58v-34h-58v-110zM201 -2v141c0 21 2 40 3 56l-2 1c-12 -22 -22 -37 -33 -54l-108 -143v-1h140z" />
    <glyph glyph-name="five.inferior" unicode="&#x2085;" horiz-adv-x="284" 
d="M248 240v-37h-151l-16 -106c9 1 18 2 34 2c29 0 56 -5 80 -18c31 -16 59 -50 59 -103c0 -77 -60 -132 -141 -132c-43 0 -78 13 -96 25l12 33c16 -10 48 -22 85 -22c53 0 96 36 96 90s-34 92 -113 92c-24 0 -43 -3 -57 -4l25 180h183z" />
    <glyph glyph-name="six.inferior" unicode="&#x2086;" horiz-adv-x="313" 
d="M250 248l1 -37c-12 0 -27 0 -43 -3c-84 -14 -131 -79 -139 -148h1c18 26 53 50 99 50c72 0 120 -52 120 -126c0 -69 -47 -136 -129 -136c-78 0 -136 60 -136 165c0 77 28 137 66 174c31 31 74 50 121 57c15 2 29 4 39 4zM162 -118c49 0 83 42 83 100c0 60 -37 94 -88 94
c-35 0 -68 -21 -84 -52c-3 -6 -6 -13 -6 -22c0 -68 33 -120 95 -120z" />
    <glyph glyph-name="seven.inferior" unicode="&#x2087;" horiz-adv-x="271" 
d="M17 240h243v-29l-176 -358h-44l174 350v1h-197v36z" />
    <glyph glyph-name="eight.inferior" unicode="&#x2088;" horiz-adv-x="308" 
d="M159 248c72 0 110 -45 110 -94c0 -32 -16 -69 -67 -91v-2c52 -20 82 -55 82 -101c0 -68 -59 -112 -131 -112c-77 0 -129 46 -129 105c0 49 29 83 80 104v3c-46 20 -65 53 -65 86c0 60 51 102 120 102zM154 -119c53 0 85 32 85 74c0 50 -35 73 -93 89
c-50 -13 -78 -46 -78 -85c0 -41 31 -78 86 -78zM155 216c-48 0 -74 -31 -74 -66c0 -41 31 -63 80 -75c37 12 66 36 66 75c0 31 -19 66 -72 66z" />
    <glyph glyph-name="nine.inferior" unicode="&#x2089;" horiz-adv-x="307" 
d="M58 -152v37c11 -1 26 0 44 2c33 4 61 18 85 42c26 24 44 60 52 109h-2c-24 -29 -56 -46 -97 -46c-73 0 -116 54 -116 118c0 72 52 138 133 138c75 0 126 -60 126 -164c0 -86 -31 -146 -68 -182c-29 -27 -69 -45 -106 -50c-20 -3 -38 -5 -51 -4zM150 214
c-49 0 -83 -44 -83 -102c0 -50 33 -86 82 -86c39 0 70 19 85 45c3 5 5 10 5 18c0 71 -27 125 -89 125z" />
    <glyph glyph-name="period.inferior" unicode="&#xf6e7;" horiz-adv-x="106" 
d="M51 -153c-17 0 -30 15 -30 34s14 33 32 33s31 -14 31 -33s-12 -34 -33 -34z" />
    <glyph glyph-name="comma.inferior" unicode="&#xf6e1;" horiz-adv-x="106" 
d="M36 -217l-32 -4c12 32 28 96 34 137l51 6c-13 -49 -39 -115 -53 -139z" />
    <glyph glyph-name="dollar.inferior" unicode="&#xf6e3;" horiz-adv-x="295" 
d="M161 -198h-32v61c-34 0 -69 11 -91 27l14 33c21 -15 51 -26 83 -26c46 0 77 27 77 63s-25 57 -70 75c-62 25 -98 52 -98 103c0 48 34 85 89 93v61h33v-59c35 -1 60 -11 75 -22l-13 -33c-12 8 -37 21 -75 21c-49 0 -67 -30 -67 -56c0 -32 22 -49 76 -71
c60 -25 92 -55 92 -108c0 -45 -32 -90 -93 -100v-62z" />
    <glyph glyph-name="cent.inferior" unicode="&#xf6df;" horiz-adv-x="305" 
d="M191 -157h-33v62c-40 4 -66 18 -88 41c-21 23 -35 58 -35 101c0 79 50 137 123 147v61h33v-60c30 0 55 -9 69 -17l-11 -33c-13 7 -34 16 -68 16c-62 0 -103 -50 -103 -112c0 -69 44 -110 101 -110c35 0 58 8 72 15l9 -31c-11 -6 -37 -17 -69 -19v-61z" />
    <glyph glyph-name="hyphen.inferior" unicode="&#xf6e5;" horiz-adv-x="181" 
d="M18 52h145v-34h-145v34z" />
    <glyph glyph-name="parenleft.inferior" unicode="&#x208d;" horiz-adv-x="166" 
d="M121 278h36c-47 -60 -80 -136 -80 -245c0 -106 34 -181 80 -242h-36c-40 50 -82 125 -82 242s42 193 82 245z" />
    <glyph glyph-name="parenright.inferior" unicode="&#x208e;" horiz-adv-x="166" 
d="M45 -209h-36c46 60 80 136 80 244c0 107 -34 182 -80 243h36c39 -51 82 -126 82 -243s-43 -193 -82 -244z" />
    <glyph glyph-name="zero.numerator" unicode="&#xf661;" horiz-adv-x="310" 
d="M151 261c-71 0 -127 66 -127 198c0 135 60 202 135 202c78 0 127 -68 127 -195c0 -133 -50 -205 -135 -205zM155 295c59 0 87 66 87 169c0 98 -26 163 -87 163c-52 0 -87 -64 -87 -163c0 -105 33 -169 87 -169z" />
    <glyph glyph-name="one.numerator" unicode="&#xf662;" horiz-adv-x="210" 
d="M142 266h-41v350h-2l-67 -35l-9 34l82 41h37v-390z" />
    <glyph glyph-name="two.numerator" unicode="&#xf663;" horiz-adv-x="286" 
d="M11 266v25l64 61c86 81 131 136 131 192c0 44 -25 82 -86 82c-37 0 -66 -20 -83 -33l-15 27c23 22 63 41 108 41c91 0 120 -63 120 -107c0 -78 -58 -139 -144 -217l-35 -33v-2h185v-36h-245z" />
    <glyph glyph-name="three.numerator" unicode="&#xf664;" horiz-adv-x="279" 
d="M45 599l-15 31c20 14 56 31 99 31c80 0 109 -47 109 -92c0 -38 -26 -73 -73 -90v-2c54 -9 90 -49 89 -100c0 -57 -46 -116 -143 -116c-45 0 -84 14 -103 27l15 33c14 -10 52 -26 90 -26c74 0 99 47 98 81c-1 61 -60 83 -118 83h-25v32h27c39 0 99 21 100 77
c0 28 -20 59 -70 59c-36 0 -67 -17 -80 -28z" />
    <glyph glyph-name="four.numerator" unicode="&#xf665;" horiz-adv-x="319" 
d="M243 266h-42v110h-188v27l186 251h44v-244h58v-34h-58v-110zM201 411v141c0 20 2 39 3 56h-2c-12 -22 -22 -36 -33 -54l-108 -142v-1h140z" />
    <glyph glyph-name="five.numerator" unicode="&#xf666;" horiz-adv-x="284" 
d="M248 653v-37h-151l-16 -106c9 1 18 2 34 2c29 0 56 -5 80 -18c31 -16 59 -50 59 -103c0 -77 -60 -132 -141 -132c-43 0 -78 13 -96 25l12 33c16 -10 48 -22 85 -22c53 0 96 36 96 90s-34 92 -113 92c-24 0 -43 -3 -57 -4l25 180h183z" />
    <glyph glyph-name="six.numerator" unicode="&#xf667;" horiz-adv-x="313" 
d="M250 661l1 -37c-12 0 -27 0 -43 -3c-84 -14 -131 -79 -139 -148h1c18 26 53 50 99 50c72 0 120 -52 120 -126c0 -69 -47 -136 -129 -136c-78 0 -136 60 -136 165c0 77 28 137 66 174c31 31 74 50 121 57c15 2 29 4 39 4zM162 295c49 0 83 42 83 100c0 60 -37 94 -88 94
c-35 0 -68 -21 -84 -52c-3 -6 -6 -13 -6 -22c0 -68 33 -120 95 -120z" />
    <glyph glyph-name="seven.numerator" unicode="&#xf668;" horiz-adv-x="271" 
d="M17 653h243v-29l-176 -358h-44l174 350v1h-197v36z" />
    <glyph glyph-name="eight.numerator" unicode="&#xf669;" horiz-adv-x="308" 
d="M159 661c72 0 110 -45 110 -94c0 -32 -16 -69 -67 -91v-2c52 -20 82 -55 82 -101c0 -68 -59 -112 -131 -112c-77 0 -129 46 -129 105c0 49 29 83 80 104v3c-46 20 -65 53 -65 86c0 60 51 102 120 102zM154 294c53 0 85 32 85 74c0 50 -35 73 -93 89
c-50 -13 -78 -46 -78 -85c0 -41 31 -78 86 -78zM155 629c-48 0 -74 -31 -74 -66c0 -41 31 -63 80 -75c37 12 66 36 66 75c0 31 -19 66 -72 66z" />
    <glyph glyph-name="nine.numerator" unicode="&#xf66a;" horiz-adv-x="307" 
d="M58 261v37c11 -1 26 0 44 2c33 4 61 18 85 41c26 25 44 61 52 110h-2c-24 -30 -56 -46 -97 -46c-73 0 -116 54 -116 118c0 72 52 138 133 138c75 0 126 -60 126 -164c0 -86 -31 -146 -68 -182c-29 -27 -69 -45 -106 -50c-20 -3 -38 -5 -51 -4zM150 627
c-49 0 -83 -44 -83 -102c0 -50 33 -86 82 -86c39 0 70 19 85 45c3 4 5 10 5 18c0 71 -27 125 -89 125z" />
    <glyph glyph-name="period.numerator" unicode="&#xf66c;" horiz-adv-x="106" 
d="M51 259c-17 0 -30 15 -30 34s14 33 32 33s31 -14 31 -33s-12 -34 -33 -34z" />
    <glyph glyph-name="comma.numerator" unicode="&#xf66b;" horiz-adv-x="106" 
d="M36 196l-32 -4c12 32 28 96 34 137l51 6c-13 -49 -39 -115 -53 -139z" />
    <glyph glyph-name="dollar.numerator" unicode="&#xf62f;" horiz-adv-x="295" 
d="M161 215h-32v61c-34 0 -69 11 -91 27l14 33c21 -15 51 -26 83 -26c46 0 77 27 77 63s-25 57 -70 75c-62 25 -98 52 -98 103c0 48 34 85 89 93v61h33v-59c35 -1 60 -11 75 -22l-13 -33c-12 8 -37 21 -75 21c-49 0 -67 -30 -67 -56c0 -32 22 -49 76 -71
c60 -25 92 -55 92 -108c0 -45 -32 -90 -93 -100v-62z" />
    <glyph glyph-name="cent.numerator" unicode="&#xf62e;" horiz-adv-x="305" 
d="M191 256h-33v62c-40 4 -66 18 -88 41c-21 23 -35 58 -35 101c0 79 50 137 123 147v61h33v-60c30 0 55 -9 69 -17l-11 -33c-13 7 -34 16 -68 16c-62 0 -103 -50 -103 -112c0 -69 44 -110 101 -110c35 0 58 9 72 15l9 -30c-11 -7 -37 -18 -69 -20v-61z" />
    <glyph glyph-name="hyphen.numerator" unicode="&#xf630;" horiz-adv-x="181" 
d="M18 465h145v-34h-145v34z" />
    <glyph glyph-name="parenleft.numerator" unicode="&#xf631;" horiz-adv-x="166" 
d="M121 691h36c-47 -60 -80 -136 -80 -245c0 -106 34 -181 80 -242h-36c-40 50 -82 125 -82 242s42 193 82 245z" />
    <glyph glyph-name="parenright.numerator" unicode="&#xf632;" horiz-adv-x="166" 
d="M45 204h-36c46 60 80 136 80 244c0 107 -34 182 -80 243h36c39 -51 82 -126 82 -243s-43 -193 -82 -244z" />
    <glyph glyph-name="zero.denominator" unicode="&#xf655;" horiz-adv-x="310" 
d="M151 -5c-71 0 -127 66 -127 198c0 135 60 202 135 202c78 0 127 -68 127 -195c0 -133 -50 -205 -135 -205zM155 29c59 0 87 66 87 169c0 98 -26 163 -87 163c-52 0 -87 -64 -87 -163c0 -105 33 -169 87 -169z" />
    <glyph glyph-name="one.denominator" unicode="&#xf656;" horiz-adv-x="210" 
d="M142 0h-41v350h-2l-67 -34l-9 33l82 41h37v-390z" />
    <glyph glyph-name="two.denominator" unicode="&#xf657;" horiz-adv-x="286" 
d="M11 0v25l64 61c86 81 131 136 131 191c0 45 -25 83 -86 83c-37 0 -66 -20 -83 -33l-15 27c23 22 63 41 108 41c91 0 120 -63 120 -108c0 -77 -58 -138 -144 -216l-35 -33v-2h185v-36h-245z" />
    <glyph glyph-name="three.denominator" unicode="&#xf658;" horiz-adv-x="279" 
d="M45 333l-15 31c20 14 56 31 99 31c80 0 109 -46 109 -91c0 -39 -26 -74 -73 -91v-2c54 -9 90 -49 89 -100c0 -57 -46 -116 -143 -116c-45 0 -84 14 -103 27l15 33c14 -10 52 -26 90 -26c74 0 99 47 98 81c-1 61 -60 83 -118 83h-25v32h27c39 0 99 21 100 77
c0 28 -20 59 -70 59c-36 0 -67 -17 -80 -28z" />
    <glyph glyph-name="four.denominator" unicode="&#xf659;" horiz-adv-x="319" 
d="M243 0h-42v110h-188v27l186 252h44v-245h58v-34h-58v-110zM201 145v141c0 21 2 40 3 56l-2 1c-12 -22 -22 -37 -33 -54l-108 -143v-1h140z" />
    <glyph glyph-name="five.denominator" unicode="&#xf65a;" horiz-adv-x="284" 
d="M248 387v-37h-151l-16 -107c9 1 18 2 34 2c29 0 56 -5 80 -18c31 -16 59 -50 59 -103c0 -76 -60 -131 -141 -131c-43 0 -78 13 -96 25l12 33c16 -10 48 -22 85 -22c53 0 96 36 96 90c0 53 -34 91 -113 91c-24 0 -43 -2 -57 -4l25 181h183z" />
    <glyph glyph-name="six.denominator" unicode="&#xf65b;" horiz-adv-x="313" 
d="M250 395l1 -37c-12 0 -27 0 -43 -3c-84 -14 -131 -79 -139 -148h1c18 26 53 50 99 50c72 0 120 -52 120 -126c0 -69 -47 -136 -129 -136c-78 0 -136 60 -136 165c0 77 28 137 66 174c31 31 74 50 121 57c15 2 29 4 39 4zM162 29c49 0 83 42 83 100c0 60 -37 94 -88 94
c-35 0 -68 -21 -84 -52c-3 -6 -6 -13 -6 -22c0 -68 33 -120 95 -120z" />
    <glyph glyph-name="seven.denominator" unicode="&#xf65c;" horiz-adv-x="271" 
d="M17 387h243v-29l-176 -358h-44l174 350v1h-197v36z" />
    <glyph glyph-name="eight.denominator" unicode="&#xf65d;" horiz-adv-x="308" 
d="M159 395c72 0 110 -45 110 -94c0 -32 -16 -69 -67 -91v-2c52 -20 82 -55 82 -101c0 -68 -59 -112 -131 -112c-77 0 -129 46 -129 105c0 49 29 83 80 104v3c-46 20 -65 53 -65 86c0 60 51 102 120 102zM154 28c53 0 85 32 85 74c0 50 -35 73 -93 89
c-50 -13 -78 -46 -78 -85c0 -41 31 -78 86 -78zM155 363c-48 0 -74 -31 -74 -66c0 -41 31 -63 80 -75c37 12 66 36 66 75c0 31 -19 66 -72 66z" />
    <glyph glyph-name="nine.denominator" unicode="&#xf65e;" horiz-adv-x="307" 
d="M58 -5v37c11 -1 26 0 44 2c33 4 61 18 85 41c26 25 44 61 52 110h-2c-24 -30 -56 -46 -97 -46c-73 0 -116 54 -116 118c0 72 52 138 133 138c75 0 126 -60 126 -164c0 -86 -31 -146 -68 -182c-29 -27 -69 -45 -106 -50c-20 -3 -38 -5 -51 -4zM150 361
c-49 0 -83 -44 -83 -102c0 -50 33 -86 82 -86c39 0 70 19 85 45c3 4 5 10 5 18c0 71 -27 125 -89 125z" />
    <glyph glyph-name="period.denominator" unicode="&#xf660;" horiz-adv-x="106" 
d="M51 -7c-17 0 -30 15 -30 34s14 33 32 33s31 -14 31 -33s-12 -34 -33 -34z" />
    <glyph glyph-name="comma.denominator" unicode="&#xf65f;" horiz-adv-x="106" 
d="M36 -70l-32 -4c12 32 28 96 34 137l51 6c-13 -49 -39 -115 -53 -139z" />
    <glyph glyph-name="dollar.denominator" unicode="&#xf62a;" horiz-adv-x="295" 
d="M161 -51h-32v61c-34 0 -69 11 -91 27l14 33c21 -15 51 -26 83 -26c46 0 77 27 77 63s-25 57 -70 75c-62 25 -98 52 -98 103c0 48 34 85 89 93v61h33v-59c35 -1 60 -11 75 -22l-13 -33c-12 8 -37 21 -75 21c-49 0 -67 -30 -67 -56c0 -32 22 -49 76 -71
c60 -25 92 -55 92 -108c0 -45 -32 -90 -93 -100v-62z" />
    <glyph glyph-name="cent.denominator" unicode="&#xf629;" horiz-adv-x="305" 
d="M191 -10h-33v62c-40 4 -66 18 -88 41c-21 23 -35 58 -35 101c0 79 50 137 123 147v61h33v-60c30 0 55 -9 69 -17l-11 -33c-13 7 -34 16 -68 16c-62 0 -103 -50 -103 -112c0 -69 44 -110 101 -110c35 0 58 9 72 15l9 -30c-11 -7 -37 -18 -69 -20v-61z" />
    <glyph glyph-name="hyphen.denominator" unicode="&#xf62b;" horiz-adv-x="181" 
d="M18 199h145v-34h-145v34z" />
    <glyph glyph-name="parenleft.denominator" unicode="&#xf62c;" horiz-adv-x="166" 
d="M121 425h36c-47 -60 -80 -136 -80 -245c0 -106 34 -181 80 -242h-36c-40 50 -82 125 -82 242s42 193 82 245z" />
    <glyph glyph-name="parenright.denominator" unicode="&#xf62d;" horiz-adv-x="166" 
d="M45 -62h-36c46 60 80 136 80 244c0 107 -34 182 -80 243h36c39 -51 82 -126 82 -243s-43 -193 -82 -244z" />
    <glyph glyph-name="at.cap" unicode="&#xf633;" horiz-adv-x="717" 
d="M451 351l26 124c-12 5 -32 10 -62 10c-102 0 -185 -94 -185 -205c0 -48 26 -84 77 -84c70 0 132 91 144 155zM496 65l14 -34c-52 -30 -110 -43 -174 -43c-163 0 -298 121 -298 312c0 207 140 386 360 386c173 0 283 -123 283 -289c0 -153 -85 -238 -170 -238
c-35 0 -74 27 -67 94h-4c-38 -64 -85 -94 -149 -94c-54 0 -105 46 -105 122c0 126 103 241 238 241c42 0 74 -8 100 -19l-36 -179c-18 -87 -4 -127 33 -127c56 -2 115 75 115 191c0 155 -89 261 -245 261c-169 0 -308 -135 -308 -346c0 -166 111 -276 258 -276
c61 0 114 14 155 38z" />
    <glyph glyph-name="emdash.cap" unicode="&#xf6bc;" horiz-adv-x="1000" 
d="M30 349h940v-39h-940v39z" />
    <glyph glyph-name="endash.cap" unicode="&#xf6bb;" horiz-adv-x="500" 
d="M30 349h440v-39h-440v39z" />
    <glyph glyph-name="exclamdown.cap" unicode="&#xf6b4;" horiz-adv-x="207" 
d="M133 0h-58l9 493h40zM105 682c24 0 39 -19 39 -45c0 -24 -15 -44 -40 -44c-24 0 -41 20 -40 44c0 26 17 45 41 45z" />
    <glyph glyph-name="guillemotleft.cap" unicode="&#xf6b6;" horiz-adv-x="392" 
d="M222 507l-142 -180l143 -180h-50l-143 180l143 180h49zM368 507l-142 -180l143 -180h-50l-143 180l142 180h50z" />
    <glyph glyph-name="guillemotright.cap" unicode="&#xf6b7;" horiz-adv-x="392" 
d="M166 327l-143 180h50l143 -180l-143 -180h-49zM312 327l-143 180h50l143 -180l-143 -180h-49z" />
    <glyph glyph-name="guilsinglleft.cap" unicode="&#xf6b8;" horiz-adv-x="246" 
d="M222 507l-142 -180l143 -180h-50l-143 180l142 180h50z" />
    <glyph glyph-name="guilsinglright.cap" unicode="&#xf6b9;" horiz-adv-x="246" 
d="M166 327l-143 180h50l143 -180l-143 -180h-49z" />
    <glyph glyph-name="hyphen.cap" unicode="&#xf6ba;" horiz-adv-x="298" 
d="M30 371h238v-42h-238v42z" />
    <glyph glyph-name="questiondown.cap" unicode="&#xf6b5;" horiz-adv-x="381" 
d="M232 682c23 0 39 -19 39 -45c0 -24 -16 -45 -41 -45c-24 0 -41 21 -40 45c0 26 16 45 42 45zM208 496h45l3 -26c8 -56 -12 -119 -64 -183c-53 -63 -77 -106 -77 -157c0 -62 37 -103 109 -103c37 0 76 12 103 32l17 -35c-32 -25 -87 -40 -129 -40c-104 0 -151 70 -151 142
c0 62 32 112 86 177c49 60 65 108 60 162z" />
    <glyph glyph-name="braceleft.cap" unicode="&#xf6b2;" horiz-adv-x="265" 
d="M26 311v35c73 -2 85 39 85 79c0 29 -4 58 -9 86c-5 29 -10 58 -10 87c0 91 61 129 141 129h12v-37h-18c-67 -1 -91 -34 -91 -96c0 -27 4 -54 9 -80c4 -27 9 -53 9 -80c0 -58 -26 -92 -64 -104v-2c38 -11 64 -48 64 -104c0 -27 -5 -54 -9 -80c-5 -27 -9 -54 -9 -82
c0 -63 29 -95 91 -96h18v-37h-12c-78 0 -141 36 -141 137c0 29 5 57 10 84c5 28 9 55 9 83c0 34 -12 80 -85 78z" />
    <glyph glyph-name="braceright.cap" unicode="&#xf6b3;" horiz-adv-x="265" 
d="M239 346v-35c-73 2 -85 -44 -85 -78c0 -28 4 -55 10 -83c4 -27 9 -55 9 -84c0 -101 -63 -137 -141 -137h-12v37h18c62 1 91 33 91 96c0 28 -4 55 -9 82c-4 26 -9 53 -9 80c0 56 26 93 64 104v2c-38 12 -64 46 -64 104c0 27 5 53 9 80c5 26 9 53 9 80c0 62 -24 95 -91 96
h-18v37h12c80 0 141 -38 141 -129c0 -29 -5 -58 -9 -87c-6 -28 -10 -57 -10 -86c0 -40 12 -81 85 -79z" />
    <glyph glyph-name="bracketleft.cap" unicode="&#xf6b0;" horiz-adv-x="265" 
d="M260 -71h-170v798h170v-37h-127v-724h127v-37z" />
    <glyph glyph-name="bracketright.cap" unicode="&#xf6b1;" horiz-adv-x="265" 
d="M6 727h170v-798h-170v37h126v724h-126v37z" />
    <glyph glyph-name="parenleft.cap" unicode="&#xf6ae;" horiz-adv-x="265" 
d="M208 737h45c-83 -103 -140 -229 -140 -413c0 -179 60 -303 140 -407h-45c-69 86 -141 212 -141 408c0 198 72 324 141 412z" />
    <glyph glyph-name="parenright.cap" unicode="&#xf6af;" horiz-adv-x="265" 
d="M57 -83h-45c80 103 140 229 140 411c0 181 -59 305 -140 409h45c69 -86 141 -212 141 -410c0 -197 -72 -322 -141 -410z" />
    <glyph glyph-name="periodcentered.cap" unicode="&#xf6bd;" horiz-adv-x="174" 
d="M85 296c-23 0 -40 20 -39 44c0 26 17 45 41 45s40 -19 40 -45c0 -24 -16 -44 -42 -44z" />
    <glyph glyph-name="lessequal" unicode="&#x2264;" horiz-adv-x="596" 
d="M525 88l-454 203v38l454 203v-45l-401 -176v-2l401 -176v-45zM525 0h-451v40h451v-40z" />
    <glyph glyph-name="greaterequal" unicode="&#x2265;" horiz-adv-x="596" 
d="M525 291l-454 -203v45l401 176v2l-401 176v45l454 -203v-38zM522 0h-451v40h451v-40z" />
    <glyph glyph-name="approxequal" unicode="&#x2248;" horiz-adv-x="596" 
d="M541 405l25 -30c-30 -31 -88 -66 -146 -66c-61 0 -98 23 -131 36c-30 12 -65 34 -117 34c-44 0 -93 -28 -121 -56l-25 30c30 31 88 66 146 66c61 0 98 -23 131 -36c30 -12 65 -34 117 -34c44 0 93 28 121 56zM547 215l25 -30c-30 -31 -88 -66 -146 -66
c-61 0 -98 23 -131 36c-30 12 -65 34 -117 34c-44 0 -93 -28 -121 -56l-25 30c30 31 88 66 146 66c61 0 98 -23 131 -36c30 -12 65 -34 117 -34c44 0 93 28 121 56z" />
    <glyph glyph-name="notequal" unicode="&#x2260;" horiz-adv-x="596" 
d="M556 155h-310l-85 -134h-44l86 134h-163v40h188l97 150h-285v40h310l85 134h44l-86 -134h163v-40h-188l-97 -150h285v-40z" />
    <glyph glyph-name="infinity" unicode="&#x221e;" horiz-adv-x="713" 
d="M532 128c-74 0 -127 62 -175 109c-51 -52 -105 -109 -184 -109c-77 0 -133 55 -133 135c0 75 62 137 141 137c75 0 128 -62 176 -110c51 52 105 110 184 110c77 0 133 -55 133 -137c0 -73 -62 -135 -142 -135zM536 168c55 0 96 44 96 95c0 56 -39 97 -94 97
c-64 0 -115 -55 -154 -97c43 -40 86 -95 152 -95zM177 168c63 0 114 54 153 95c-43 40 -86 97 -151 97c-56 0 -97 -45 -97 -97c0 -54 39 -95 95 -95z" />
    <glyph glyph-name="lozenge" unicode="&#x25ca;" horiz-adv-x="490" 
d="M442 325l-176 -352h-43l-176 352l176 352h43zM395 324l-142 292c-3 6 -6 12 -9 19h-2c-2 -7 -5 -13 -8 -19l-140 -290l142 -292c3 -6 6 -12 8 -19h3c2 7 5 13 8 19z" />
    <glyph glyph-name="integral" unicode="&#x222b;" horiz-adv-x="290" 
d="M279 780l-10 -35c-8 2 -18 4 -27 4c-16 0 -33 -5 -45 -19c-23 -26 -34 -69 -34 -163c0 -141 10 -347 10 -486c0 -107 -22 -162 -47 -190c-18 -19 -43 -32 -73 -32c-19 0 -37 5 -44 9l9 34c8 -2 19 -5 34 -5s32 6 45 20c18 22 34 59 34 166c0 139 -10 349 -10 487
c0 96 14 151 47 185c20 22 45 32 74 32c15 0 28 -3 37 -7z" />
    <glyph glyph-name="partialdiff" unicode="&#x2202;" horiz-adv-x="375" 
d="M83 640l-18 32c35 26 83 51 158 51c120 0 242 -115 242 -350c0 -256 -123 -384 -252 -384c-125 0 -185 93 -185 203c0 134 101 241 217 241c87 0 151 -51 174 -95h1c1 14 1 30 1 44c0 210 -110 300 -198 300c-66 0 -110 -20 -140 -42zM217 30c105 0 179 117 196 252
c-24 60 -88 110 -167 110c-91 0 -169 -84 -169 -196c0 -103 55 -166 140 -166z" />
    <glyph glyph-name="product" unicode="&#x220f;" horiz-adv-x="586" 
d="M577 609h-93v-699h-47v699h-288v-699h-47v699h-93v41h568v-41z" />
    <glyph glyph-name="radical" unicode="&#x221a;" horiz-adv-x="545" 
d="M558 819l-231 -923h-40l-161 437l-72 -31l-15 34l114 48l134 -375c6 -17 13 -38 16 -53h1c3 14 8 36 11 52l199 811h44z" />
    <glyph glyph-name="summation" unicode="&#x2211;" horiz-adv-x="485" 
d="M500 -90h-495v31l272 337l-258 339v33h445v-40h-383v-3l251 -327l-263 -327v-3h431v-40z" />
    <glyph glyph-name="Delta" unicode="&#x2206;" horiz-adv-x="532" 
d="M516 0h-500v33l227 625h46l227 -625v-33zM467 40l-147 411c-18 50 -40 112 -54 156h-2c-10 -36 -30 -91 -47 -140l-153 -427h403z" />
    <glyph glyph-name="Omega" unicode="&#x2126;" horiz-adv-x="681" 
d="M498 44v-3h154v-41h-226v34c87 57 163 177 163 320c0 129 -79 292 -246 292c-166 0 -251 -153 -251 -294c0 -137 78 -263 162 -318v-34h-226v41h154v3c-74 62 -140 171 -140 308c0 202 135 334 303 334c174 0 294 -136 294 -327c0 -144 -65 -252 -141 -315z" />
    <glyph glyph-name="pi" unicode="&#x3c0;" horiz-adv-x="527" 
d="M490 440h-71v-302c0 -87 7 -116 14 -138h-47c-6 12 -15 44 -15 131v309h-191c-6 -136 -39 -358 -76 -440h-45c40 94 70 297 76 440c-45 0 -80 -3 -105 -9l-9 29c22 11 51 20 116 20h360z" />
    <glyph glyph-name="aringacute" unicode="&#x1fb;" horiz-adv-x="454" 
d="M288 817h70l-138 -99h-38zM380 302v-188c0 -38 1 -77 6 -114h-44l-7 69h-2c-23 -37 -77 -80 -153 -80c-97 0 -141 68 -141 132c0 111 97 178 293 176v13c0 47 -9 142 -123 141c-43 0 -86 -11 -121 -36l-15 35c44 29 97 41 141 41c139 0 166 -104 166 -189zM332 154
l-1 103c-104 3 -242 -13 -242 -128c0 -69 45 -100 95 -100c81 0 127 49 143 96c4 10 5 21 5 29zM226 517c-53 0 -92 39 -92 87c0 51 38 91 93 91c52 0 90 -39 90 -90c0 -50 -42 -88 -91 -88zM226 547c32 0 55 27 55 59c0 34 -23 59 -56 59c-32 0 -53 -27 -53 -60
c0 -29 23 -58 54 -58z" />
    <glyph glyph-name="Abreve" unicode="&#x102;" horiz-adv-x="585" 
d="M428 236h-266l-83 -236h-49l244 674h46l242 -674h-49zM177 276h237l-82 225c-17 47 -26 81 -35 119h-3c-9 -39 -20 -74 -35 -117zM179 806h35c6 -23 26 -50 79 -50s74 24 79 50h35c-2 -50 -35 -93 -115 -93c-78 0 -111 42 -113 93z" />
    <glyph glyph-name="Amacron" unicode="&#x100;" horiz-adv-x="585" 
d="M428 236h-266l-83 -236h-49l244 674h46l242 -674h-49zM177 276h237l-82 225c-17 47 -26 81 -35 119h-3c-9 -39 -20 -74 -35 -117zM179 772h228v-39h-228v39z" />
    <glyph glyph-name="Aogonek" unicode="&#x104;" horiz-adv-x="585" 
d="M320 674l243 -674l-9 -3c-19 -16 -70 -66 -70 -109c0 -31 21 -48 49 -48c17 0 33 4 46 11l9 -29c-16 -13 -47 -19 -67 -19c-48 0 -82 27 -82 75c0 50 42 95 73 128l-83 230h-267l-83 -236h-49l244 674h46zM177 276h238l-82 225c-17 47 -26 81 -36 119h-2
c-10 -39 -20 -75 -35 -117z" />
    <glyph glyph-name="i.dot" horiz-adv-x="209" 
d="M129 0h-48v480h48v-480zM105 659c22 0 38 -19 38 -42c0 -22 -15 -41 -40 -41c-22 0 -37 19 -37 41s17 42 39 42z" />
    <glyph glyph-name="Cacute" unicode="&#x106;" horiz-adv-x="570" 
d="M524 62l14 -38c-34 -17 -99 -34 -182 -34c-163 0 -319 104 -319 343c0 200 129 352 342 352c86 0 136 -19 156 -30l-15 -40c-34 17 -83 29 -140 29c-182 0 -293 -118 -293 -312c0 -183 104 -301 285 -301c57 0 113 12 152 31zM414 826h73l-131 -113h-40z" />
    <glyph glyph-name="Ccaron" unicode="&#x10c;" horiz-adv-x="570" 
d="M524 62l14 -38c-34 -17 -99 -34 -182 -34c-163 0 -319 104 -319 343c0 200 129 352 342 352c86 0 136 -19 156 -30l-15 -40c-34 17 -83 29 -140 29c-182 0 -293 -118 -293 -312c0 -183 104 -301 285 -301c57 0 113 12 152 31zM367 714h-38l-107 109h53l73 -74h2l71 74h50
z" />
    <glyph glyph-name="Ccircumflex" unicode="&#x108;" horiz-adv-x="570" 
d="M524 62l14 -38c-34 -17 -99 -34 -182 -34c-163 0 -319 104 -319 343c0 200 129 352 342 352c86 0 136 -19 156 -30l-15 -40c-34 17 -83 29 -140 29c-182 0 -293 -118 -293 -312c0 -183 104 -301 285 -301c57 0 113 12 152 31zM322 823h38l107 -109h-53l-72 74h-2l-72 -74
h-50z" />
    <glyph glyph-name="Cdotaccent" unicode="&#x10a;" horiz-adv-x="570" 
d="M524 62l14 -38c-34 -17 -99 -34 -182 -34c-163 0 -319 104 -319 343c0 200 129 352 342 352c86 0 136 -19 156 -30l-15 -40c-34 17 -83 29 -140 29c-182 0 -293 -118 -293 -312c0 -183 104 -301 285 -301c57 0 113 12 152 31zM342 724h-2c-20 0 -36 20 -36 39
s17 39 38 39s37 -20 37 -39s-16 -39 -37 -39z" />
    <glyph glyph-name="Dcaron" unicode="&#x10e;" horiz-adv-x="647" 
d="M81 1v663c52 9 109 15 173 15c123 0 216 -33 272 -92c54 -56 84 -132 84 -234c0 -99 -27 -188 -88 -255c-59 -65 -161 -103 -291 -103c-52 0 -101 1 -150 6zM129 628v-588c27 -4 66 -5 109 -5c216 0 323 121 323 316c2 171 -93 288 -310 288c-52 0 -93 -5 -122 -11z
M319 713h-38l-107 109h53l73 -74h2l71 74h50z" />
    <glyph glyph-name="Ebreve" unicode="&#x114;" horiz-adv-x="466" 
d="M398 375v-40h-269v-295h301v-40h-349v674h333v-40h-285v-259h269zM127 817h35c6 -23 26 -50 79 -50s74 24 79 50h35c-2 -50 -35 -93 -115 -93c-78 0 -111 42 -113 93z" />
    <glyph glyph-name="Ecaron" unicode="&#x11a;" horiz-adv-x="466" 
d="M398 375v-40h-269v-295h301v-40h-349v674h333v-40h-285v-259h269zM268 710h-38l-107 109h53l73 -74h2l71 74h50z" />
    <glyph glyph-name="Edotaccent" unicode="&#x116;" horiz-adv-x="466" 
d="M398 375v-40h-269v-295h301v-40h-349v674h333v-40h-285v-259h269zM239 727h-2c-20 0 -36 20 -36 39s17 39 38 39s37 -20 37 -39s-16 -39 -37 -39z" />
    <glyph glyph-name="Emacron" unicode="&#x112;" horiz-adv-x="466" 
d="M398 375v-40h-269v-295h301v-40h-349v674h333v-40h-285v-259h269zM138 772h228v-39h-228v39z" />
    <glyph glyph-name="Eogonek" unicode="&#x118;" horiz-adv-x="466" 
d="M425 -152l9 -31c-20 -10 -41 -15 -64 -15c-51 0 -85 26 -85 73c0 54 49 102 87 125h-291v674h333v-40h-285v-259h269v-40h-269v-295h302v-40c-3 0 -7 -1 -10 -1c-47 -29 -91 -74 -91 -114c0 -30 21 -45 50 -45c16 0 30 2 45 8z" />
    <glyph glyph-name="Gbreve" unicode="&#x11e;" horiz-adv-x="624" 
d="M565 334v-304c-34 -14 -105 -37 -197 -37c-89 0 -170 23 -238 88c-56 55 -93 146 -93 254c0 187 123 346 352 346c72 0 131 -17 157 -30l-16 -40c-35 17 -79 29 -144 29c-185 0 -299 -120 -299 -303c0 -190 111 -303 289 -303c71 0 116 10 141 23v238h-156v39h204z
M226 817h35c6 -23 26 -50 79 -50s74 24 79 50h35c-2 -50 -35 -93 -115 -93c-78 0 -111 42 -113 93z" />
    <glyph glyph-name="Gcircumflex" unicode="&#x11c;" horiz-adv-x="624" 
d="M565 334v-304c-34 -14 -105 -37 -197 -37c-89 0 -170 23 -238 88c-56 55 -93 146 -93 254c0 187 123 346 352 346c72 0 131 -17 157 -30l-16 -40c-35 17 -79 29 -144 29c-185 0 -299 -120 -299 -303c0 -190 111 -303 289 -303c71 0 116 10 141 23v238h-156v39h204z
M332 822h38l107 -109h-53l-72 74h-2l-72 -74h-50z" />
    <glyph glyph-name="Gcommaaccent" unicode="&#x122;" horiz-adv-x="624" 
d="M565 334v-304c-34 -14 -105 -37 -197 -37c-89 0 -170 23 -238 88c-56 55 -93 146 -93 254c0 187 123 346 352 346c72 0 131 -17 157 -30l-16 -40c-35 17 -79 29 -144 29c-185 0 -299 -120 -299 -303c0 -190 111 -303 289 -303c71 0 116 10 141 23v238h-156v39h204z
M304 -209l-13 26c42 6 81 25 81 68c0 24 -16 47 -37 61l40 12c20 -12 40 -39 40 -70c0 -67 -65 -93 -111 -97z" />
    <glyph glyph-name="Gdotaccent" unicode="&#x120;" horiz-adv-x="624" 
d="M565 334v-304c-34 -14 -105 -37 -197 -37c-89 0 -170 23 -238 88c-56 55 -93 146 -93 254c0 187 123 346 352 346c72 0 131 -17 157 -30l-16 -40c-35 17 -79 29 -144 29c-185 0 -299 -120 -299 -303c0 -190 111 -303 289 -303c71 0 116 10 141 23v238h-156v39h204z
M352 724c-20 0 -36 20 -36 39s17 39 38 39s37 -20 37 -39s-16 -39 -39 -39z" />
    <glyph glyph-name="G_tildecomb" unicode="&#xe000;" horiz-adv-x="624" 
d="M565 334v-304c-34 -14 -105 -37 -197 -37c-89 0 -170 23 -238 88c-56 55 -93 146 -93 254c0 187 123 346 352 346c72 0 131 -17 157 -30l-16 -40c-35 17 -79 29 -144 29c-185 0 -299 -120 -299 -303c0 -190 111 -303 289 -303c71 0 116 10 141 23v238h-156v39h204z
M276 716h-33c-1 46 22 86 62 86c20 0 34 -8 57 -21c16 -8 33 -17 50 -17c15 0 25 6 27 37h33c0 -46 -18 -80 -60 -80c-18 0 -35 7 -59 20c-20 10 -35 19 -50 19c-18 0 -24 -18 -27 -44z" />
    <glyph glyph-name="Hcircumflex" unicode="&#x124;" horiz-adv-x="630" 
d="M81 674h48v-297h372v297h48v-674h-48v337h-372v-337h-48v674zM295 819h38l107 -109h-53l-72 74h-2l-72 -74h-50z" />
    <glyph glyph-name="Ibreve" unicode="&#x12c;" horiz-adv-x="211" 
d="M81 674h48v-674h-48v674zM-8 812h35c6 -23 26 -50 79 -50s74 24 79 50h35c-2 -50 -35 -93 -115 -93c-78 0 -111 42 -113 93z" />
    <glyph glyph-name="Idotaccent" unicode="&#x130;" horiz-adv-x="211" 
d="M81 674h48v-674h-48v674zM107 727h-2c-20 0 -36 20 -36 39s17 39 38 39s37 -20 37 -39s-16 -39 -37 -39z" />
    <glyph glyph-name="Imacron" unicode="&#x12a;" horiz-adv-x="211" 
d="M81 674h48v-674h-48v674zM-7 772h228v-39h-228v39z" />
    <glyph glyph-name="Iogonek" unicode="&#x12e;" horiz-adv-x="211" 
d="M129 674v-674h-5c-19 -23 -54 -73 -54 -116c0 -34 21 -49 49 -49c19 0 34 4 46 10l9 -30c-17 -12 -47 -18 -68 -18c-47 0 -81 27 -81 75c0 50 34 96 56 128v674h48z" />
    <glyph glyph-name="Itilde" unicode="&#x128;" horiz-adv-x="211" 
d="M81 674h48v-674h-48v674zM24 716h-33c-1 46 22 86 63 86c19 0 34 -8 57 -21c15 -8 32 -17 50 -17c15 0 25 6 27 37h33c0 -46 -18 -80 -60 -80c-18 0 -35 7 -59 20c-20 10 -35 19 -50 19c-19 0 -25 -19 -28 -44z" />
    <glyph glyph-name="Jcircumflex" unicode="&#x134;" horiz-adv-x="345" 
d="M223 219v455h48v-466c0 -172 -86 -219 -182 -219c-31 0 -65 8 -82 16l10 38c17 -7 41 -13 71 -13c86 0 135 39 135 189zM222 819h38l107 -109h-53l-72 74h-2l-72 -74h-50z" />
    <glyph glyph-name="Kcommaaccent" unicode="&#x136;" horiz-adv-x="498" 
d="M81 0v674h48v-341h3c20 26 40 49 58 70l239 271h58l-256 -286l280 -388h-57l-256 355l-69 -76v-279h-48zM200 -207l-14 26c42 6 81 25 81 68c0 24 -16 47 -37 61l40 12c20 -12 40 -39 40 -70c0 -67 -65 -93 -110 -97z" />
    <glyph glyph-name="Lacute" unicode="&#x139;" horiz-adv-x="448" 
d="M81 0v674h48v-634h300v-40h-348zM188 823h73l-131 -113h-40z" />
    <glyph glyph-name="Lcaron" unicode="&#x13d;" horiz-adv-x="448" 
d="M81 0v674h48v-634h300v-40h-348zM239 516l-14 26c42 6 81 25 81 68c0 24 -16 47 -37 61l40 12c20 -12 40 -39 40 -70c0 -67 -65 -93 -110 -97z" />
    <glyph glyph-name="Lcommaaccent" unicode="&#x13b;" horiz-adv-x="448" 
d="M81 0v674h48v-634h300v-40h-348zM186 -209l-14 26c42 6 81 25 81 68c0 24 -16 47 -37 61l40 12c20 -12 40 -39 40 -70c0 -67 -65 -93 -110 -97z" />
    <glyph glyph-name="Ldot" unicode="&#x13f;" horiz-adv-x="448" 
d="M81 0v674h48v-634h300v-40h-348zM315 328h-2c-20 0 -36 20 -36 39s17 39 38 39s37 -20 37 -39s-16 -39 -37 -39z" />
    <glyph glyph-name="M_uni0302" unicode="&#xe001;" horiz-adv-x="778" 
d="M670 0l-20 320c-6 101 -14 225 -14 298h-2c-25 -73 -52 -151 -91 -251l-142 -367h-33l-133 358c-38 105 -67 186 -87 260h-2c-2 -79 -7 -196 -15 -308l-21 -310h-47l49 674h55l145 -388c32 -86 55 -154 74 -219h3c17 62 41 128 75 218l151 389h57l45 -674h-47zM368 819
h38l107 -109h-53l-72 74h-2l-72 -74h-50z" />
    <glyph glyph-name="Nacute" unicode="&#x143;" horiz-adv-x="638" 
d="M128 0h-46v674h45l262 -398c55 -84 94 -147 127 -212l2 1c-7 91 -8 168 -8 274v335h46v-674h-44l-257 392c-50 78 -96 149 -131 218l-2 -1c5 -83 6 -156 6 -268v-341zM381 823h74l-131 -113h-40z" />
    <glyph glyph-name="Ncaron" unicode="&#x147;" horiz-adv-x="638" 
d="M128 0h-46v674h45l262 -398c55 -84 94 -147 127 -212l2 1c-7 91 -8 168 -8 274v335h46v-674h-44l-257 392c-50 78 -96 149 -131 218l-2 -1c5 -83 6 -156 6 -268v-341zM339 702h-38l-107 109h53l73 -74h2l71 74h50z" />
    <glyph glyph-name="N_uni0302" unicode="&#xe002;" horiz-adv-x="638" 
d="M128 0h-46v674h45l262 -398c55 -84 94 -147 127 -212l2 1c-7 91 -8 168 -8 274v335h46v-674h-44l-257 392c-50 78 -96 149 -131 218l-2 -1c5 -83 6 -156 6 -268v-341zM299 819h38l107 -109h-53l-72 74h-2l-72 -74h-50z" />
    <glyph glyph-name="Ncommaaccent" unicode="&#x145;" horiz-adv-x="638" 
d="M128 0h-46v674h45l262 -398c55 -84 94 -147 127 -212l2 1c-7 91 -8 168 -8 274v335h46v-674h-44l-257 392c-50 78 -96 149 -131 218l-2 -1c5 -83 6 -156 6 -268v-341zM266 -209l-14 26c42 6 81 25 81 68c0 24 -16 47 -37 61l40 12c20 -12 40 -39 40 -70
c0 -67 -65 -93 -110 -97z" />
    <glyph glyph-name="Obreve" unicode="&#x14e;" horiz-adv-x="671" 
d="M340 686c170 0 294 -133 294 -342c0 -238 -146 -355 -302 -355c-166 0 -295 131 -295 342c0 221 134 355 303 355zM337 646c-171 0 -250 -156 -250 -314c0 -152 88 -303 248 -303s249 145 249 312c0 143 -78 305 -247 305zM221 821h35c6 -23 26 -50 79 -50s74 24 79 50
h35c-2 -50 -35 -93 -115 -93c-78 0 -111 42 -113 93z" />
    <glyph glyph-name="Ohungarumlaut" unicode="&#x150;" horiz-adv-x="671" 
d="M340 686c170 0 294 -133 294 -342c0 -238 -146 -355 -302 -355c-166 0 -295 131 -295 342c0 221 134 355 303 355zM337 646c-171 0 -250 -156 -250 -314c0 -152 88 -303 248 -303s249 145 249 312c0 143 -78 305 -247 305zM341 826h67l-117 -109h-39zM467 826h67
l-117 -109h-39z" />
    <glyph glyph-name="Omacron" unicode="&#x14c;" horiz-adv-x="671" 
d="M340 686c170 0 294 -133 294 -342c0 -238 -146 -355 -302 -355c-166 0 -295 131 -295 342c0 221 134 355 303 355zM337 646c-171 0 -250 -156 -250 -314c0 -152 88 -303 248 -303s249 145 249 312c0 143 -78 305 -247 305zM222 779h228v-39h-228v39z" />
    <glyph glyph-name="Oslashacute" unicode="&#x1fe;" horiz-adv-x="671" 
d="M86 -28l-29 23l66 89c-53 60 -86 147 -86 248c0 223 137 354 303 354c65 0 128 -21 180 -65l61 81l32 -22l-65 -87c54 -60 86 -147 86 -249c0 -244 -151 -355 -297 -355c-70 0 -135 23 -187 67zM152 124l342 461c-42 37 -94 61 -157 61c-170 0 -250 -161 -250 -308
c0 -92 26 -157 63 -215zM519 554l-342 -462c41 -40 88 -63 158 -63c162 0 249 151 249 312c0 70 -16 144 -63 213h-2zM407 833h73l-131 -113h-40z" />
    <glyph glyph-name="Racute" unicode="&#x154;" horiz-adv-x="505" 
d="M81 0v664c42 10 99 15 146 15c88 0 144 -19 182 -57c29 -27 47 -72 47 -119c0 -91 -54 -149 -132 -176v-2c54 -17 88 -68 104 -143c23 -105 36 -155 50 -182h-49c-11 20 -25 79 -43 164c-21 97 -63 141 -152 145h-105v-309h-48zM129 631v-283h107c104 0 172 58 172 147
c0 103 -76 145 -182 145c-46 0 -80 -5 -97 -9zM306 827h73l-131 -113h-40z" />
    <glyph glyph-name="Rcaron" unicode="&#x158;" horiz-adv-x="505" 
d="M81 0v664c42 10 99 15 146 15c88 0 144 -19 182 -57c29 -27 47 -72 47 -119c0 -91 -54 -149 -132 -176v-2c54 -17 88 -68 104 -143c23 -105 36 -155 50 -182h-49c-11 20 -25 79 -43 164c-21 97 -63 141 -152 145h-105v-309h-48zM129 631v-283h107c104 0 172 58 172 147
c0 103 -76 145 -182 145c-46 0 -80 -5 -97 -9zM266 714h-38l-107 109h53l73 -74h2l71 74h50z" />
    <glyph glyph-name="Rcommaaccent" unicode="&#x156;" horiz-adv-x="505" 
d="M81 0v664c42 10 99 15 146 15c88 0 144 -19 182 -57c29 -27 47 -72 47 -119c0 -91 -54 -149 -132 -176v-2c54 -17 88 -68 104 -143c23 -105 36 -155 50 -182h-49c-11 20 -25 79 -43 164c-21 97 -63 141 -152 145h-105v-309h-48zM129 631v-283h107c104 0 172 58 172 147
c0 103 -76 145 -182 145c-46 0 -80 -5 -97 -9zM203 -199l-14 26c42 6 81 25 81 68c0 24 -16 47 -37 61l40 12c20 -12 40 -39 40 -70c0 -67 -65 -93 -110 -97z" />
    <glyph glyph-name="Sacute" unicode="&#x15a;" horiz-adv-x="464" 
d="M42 35l18 39c38 -26 91 -44 147 -44c101 0 163 57 163 140c0 76 -39 120 -137 158c-108 38 -173 94 -173 186c0 99 81 171 196 171c63 0 111 -16 134 -32l-18 -40c-18 13 -61 32 -119 32c-109 0 -146 -70 -146 -123c0 -75 43 -113 140 -151c111 -45 170 -95 170 -196
c0 -98 -70 -186 -214 -186c-58 0 -126 19 -161 46zM302 827h73l-131 -113h-40z" />
    <glyph glyph-name="Scedilla" unicode="&#x15e;" horiz-adv-x="464" 
d="M42 35l18 39c38 -26 91 -44 147 -44c101 0 163 57 163 140c0 76 -39 120 -137 158c-108 38 -173 94 -173 186c0 99 81 171 196 171c63 0 111 -16 134 -32l-18 -40c-18 13 -61 32 -119 32c-109 0 -146 -70 -146 -123c0 -75 43 -113 140 -151c111 -45 170 -95 170 -196
c0 -86 -53 -163 -163 -182l-32 -47c38 -6 69 -33 69 -70c0 -51 -44 -74 -93 -74c-23 0 -48 7 -62 16l11 34c16 -7 32 -13 55 -13c25 0 46 11 46 35c0 29 -35 40 -77 45l42 70h-10c-58 0 -126 19 -161 46z" />
    <glyph glyph-name="Scircumflex" unicode="&#x15c;" horiz-adv-x="464" 
d="M42 35l18 39c38 -26 91 -44 147 -44c101 0 163 57 163 140c0 76 -39 120 -137 158c-108 38 -173 94 -173 186c0 99 81 171 196 171c63 0 111 -16 134 -32l-18 -40c-18 13 -61 32 -119 32c-109 0 -146 -70 -146 -123c0 -75 43 -113 140 -151c111 -45 170 -95 170 -196
c0 -98 -70 -186 -214 -186c-58 0 -126 19 -161 46zM213 823h38l107 -109h-53l-72 74h-2l-72 -74h-50z" />
    <glyph glyph-name="Scommaaccent" unicode="&#x218;" horiz-adv-x="464" 
d="M42 35l18 39c38 -26 91 -44 147 -44c101 0 163 57 163 140c0 76 -39 120 -137 158c-108 38 -173 94 -173 186c0 99 81 171 196 171c63 0 111 -16 134 -32l-18 -40c-18 13 -61 32 -119 32c-109 0 -146 -70 -146 -123c0 -75 43 -113 140 -151c111 -45 170 -95 170 -196
c0 -98 -70 -186 -214 -186c-58 0 -126 19 -161 46zM177 -209l-13 26c42 6 81 25 81 68c0 24 -16 47 -37 61l40 12c20 -12 40 -39 40 -70c0 -67 -65 -93 -111 -97z" />
    <glyph glyph-name="Tcaron" unicode="&#x164;" horiz-adv-x="465" 
d="M209 0v634h-220v40h488v-40h-220v-634h-48zM253 710h-38l-107 109h53l73 -74h2l71 74h50z" />
    <glyph glyph-name="Tcommaaccent" unicode="&#x162;" horiz-adv-x="465" 
d="M209 0v634h-220v40h488v-40h-220v-634h-48zM173 -209l-14 26c42 6 81 25 81 68c0 24 -16 47 -37 61l40 12c20 -12 40 -39 40 -70c0 -67 -65 -93 -110 -97z" />
    <glyph glyph-name="Ubreve" unicode="&#x16c;" horiz-adv-x="626" 
d="M81 674h48v-407c0 -171 80 -237 179 -237c112 0 189 72 189 237v407h48v-402c0 -207 -112 -283 -239 -283c-118 0 -225 69 -225 275v410zM199 821h35c6 -23 26 -50 79 -50s74 24 79 50h35c-2 -50 -35 -93 -115 -93c-78 0 -111 42 -113 93z" />
    <glyph glyph-name="Uhungarumlaut" unicode="&#x170;" horiz-adv-x="626" 
d="M81 674h48v-407c0 -171 80 -237 179 -237c112 0 189 72 189 237v407h48v-402c0 -207 -112 -283 -239 -283c-118 0 -225 69 -225 275v410zM298 822h67l-117 -109h-39zM424 822h67l-117 -109h-39z" />
    <glyph glyph-name="Umacron" unicode="&#x16a;" horiz-adv-x="626" 
d="M81 674h48v-407c0 -171 80 -237 179 -237c112 0 189 72 189 237v407h48v-402c0 -207 -112 -283 -239 -283c-118 0 -225 69 -225 275v410zM199 772h228v-39h-228v39z" />
    <glyph glyph-name="Uogonek" unicode="&#x172;" horiz-adv-x="626" 
d="M393 -147l9 -29c-16 -13 -47 -19 -67 -19c-48 0 -82 27 -82 74c0 40 29 80 58 110h-7c-119 3 -223 71 -223 275v410h48v-407c0 -172 80 -238 180 -238c111 0 188 72 188 238v407h48v-403c0 -173 -81 -254 -181 -273c-29 -25 -66 -70 -66 -109c0 -31 20 -47 49 -47
c16 0 33 4 46 11z" />
    <glyph glyph-name="Uring" unicode="&#x16e;" horiz-adv-x="626" 
d="M81 674h48v-407c0 -171 80 -237 179 -237c112 0 189 72 189 237v407h48v-402c0 -207 -112 -283 -239 -283c-118 0 -225 69 -225 275v410zM314 865c52 0 89 -38 89 -87c0 -47 -40 -83 -90 -83c-53 0 -91 37 -91 83c0 48 37 87 92 87zM311 837c-30 0 -49 -27 -49 -59
c0 -27 21 -54 50 -54c30 0 51 25 51 56c0 32 -21 57 -52 57z" />
    <glyph glyph-name="Utilde" unicode="&#x168;" horiz-adv-x="626" 
d="M81 674h48v-407c0 -171 80 -237 179 -237c112 0 189 72 189 237v407h48v-402c0 -207 -112 -283 -239 -283c-118 0 -225 69 -225 275v410zM231 716h-33c-1 46 22 86 62 86c20 0 34 -8 57 -21c16 -8 33 -17 50 -17c15 0 25 6 27 37h33c0 -46 -18 -80 -60 -80
c-18 0 -35 7 -59 20c-20 10 -35 19 -50 19c-18 0 -24 -19 -27 -44z" />
    <glyph glyph-name="Wacute" unicode="&#x1e82;" horiz-adv-x="820" 
d="M238 0h-45l-178 674h49l98 -380c22 -87 43 -168 56 -231h2c11 63 35 143 62 231l110 380h46l100 -377c22 -82 44 -166 55 -234h2c15 73 37 146 61 232l111 379h49l-202 -674h-46l-101 388c-27 99 -43 165 -52 228h-2c-11 -62 -30 -129 -60 -228zM482 823h73l-131 -113
h-40z" />
    <glyph glyph-name="Wcircumflex" unicode="&#x174;" horiz-adv-x="820" 
d="M238 0h-45l-178 674h49l98 -380c22 -87 43 -168 56 -231h2c11 63 35 143 62 231l110 380h46l100 -377c22 -82 44 -166 55 -234h2c15 73 37 146 61 232l111 379h49l-202 -674h-46l-101 388c-27 99 -43 165 -52 228h-2c-11 -62 -30 -129 -60 -228zM389 819h38l107 -109h-53
l-72 74h-2l-72 -74h-50z" />
    <glyph glyph-name="Wdieresis" unicode="&#x1e84;" horiz-adv-x="820" 
d="M238 0h-45l-178 674h49l98 -380c22 -87 43 -168 56 -231h2c11 63 35 143 62 231l110 380h46l100 -377c22 -82 44 -166 55 -234h2c15 73 37 146 61 232l111 379h49l-202 -674h-46l-101 388c-27 99 -43 165 -52 228h-2c-11 -62 -30 -129 -60 -228zM323 726
c-22 0 -36 18 -36 40c0 21 16 40 37 40c22 0 37 -18 37 -40s-13 -40 -38 -40zM495 726c-22 0 -36 18 -36 40c0 21 16 40 37 40c22 0 37 -18 37 -40s-13 -40 -38 -40z" />
    <glyph glyph-name="Wgrave" unicode="&#x1e80;" horiz-adv-x="820" 
d="M238 0h-45l-178 674h49l98 -380c22 -87 43 -168 56 -231h2c11 63 35 143 62 231l110 380h46l100 -377c22 -82 44 -166 55 -234h2c15 73 37 146 61 232l111 379h49l-202 -674h-46l-101 388c-27 99 -43 165 -52 228h-2c-11 -62 -30 -129 -60 -228zM272 823h73l98 -113h-40z
" />
    <glyph glyph-name="Ycircumflex" unicode="&#x176;" horiz-adv-x="503" 
d="M277 0h-48v292l-214 382h53l111 -201c29 -53 53 -97 77 -145h2c20 45 48 92 78 146l115 200h53l-227 -383v-291zM232 819h38l107 -109h-53l-72 74h-2l-72 -74h-50z" />
    <glyph glyph-name="Ygrave" unicode="&#x1ef2;" horiz-adv-x="503" 
d="M277 0h-48v292l-214 382h53l111 -201c29 -53 53 -97 77 -145h2c20 45 48 92 78 146l115 200h53l-227 -383v-291zM126 813h73l98 -113h-40z" />
    <glyph glyph-name="uni0232" unicode="&#x232;" horiz-adv-x="503" 
d="M277 0h-48v292l-214 382h53l111 -201c29 -53 53 -97 77 -145h2c20 45 48 92 78 146l115 200h53l-227 -383v-291zM138 772h228v-39h-228v39z" />
    <glyph glyph-name="Zacute" unicode="&#x179;" horiz-adv-x="539" 
d="M34 0v31l406 600v3h-373v40h434v-32l-407 -599v-3h412v-40h-472zM341 823h74l-131 -113h-40z" />
    <glyph glyph-name="Zdotaccent" unicode="&#x17b;" horiz-adv-x="539" 
d="M34 0v31l406 600v3h-373v40h434v-32l-407 -599v-3h412v-40h-472zM272 725c-20 0 -36 20 -36 39s17 39 38 39s37 -20 37 -39s-16 -39 -39 -39z" />
    <glyph glyph-name="AEacute" unicode="&#x1fc;" horiz-adv-x="738" 
d="M46 0h-49l321 674h365v-40h-292l30 -260h249v-40h-244l36 -294h242l-1 -40h-282l-33 271h-213zM194 310h189l-24 212c-3 33 -10 82 -12 116h-4c-13 -31 -31 -71 -48 -109zM493 823h73l-131 -113h-40z" />
    <glyph glyph-name="abreve" unicode="&#x103;" horiz-adv-x="454" 
d="M380 302v-188c0 -38 1 -77 7 -114h-44l-7 69h-2c-24 -37 -77 -80 -154 -80c-97 0 -141 68 -141 132c0 111 97 178 293 176v13c0 47 -9 142 -123 141c-42 0 -86 -11 -121 -36l-15 35c44 29 98 41 141 41c139 0 166 -104 166 -189zM332 154v103c-105 3 -243 -13 -243 -128
c0 -69 46 -100 96 -100c80 0 126 49 142 96c4 10 5 21 5 29zM112 676h36c6 -41 36 -74 79 -74c52 0 76 39 79 74h36c0 -69 -49 -114 -115 -114c-85 0 -115 62 -115 114z" />
    <glyph glyph-name="amacron" unicode="&#x101;" horiz-adv-x="454" 
d="M380 302v-188c0 -38 1 -77 7 -114h-44l-7 69h-2c-24 -37 -77 -80 -154 -80c-97 0 -141 68 -141 132c0 111 97 178 293 176v13c0 47 -9 142 -123 141c-42 0 -86 -11 -121 -36l-15 35c44 29 98 41 141 41c139 0 166 -104 166 -189zM332 154v103c-105 3 -243 -13 -243 -128
c0 -69 46 -100 96 -100c80 0 126 49 142 96c4 10 5 21 5 29zM123 629h210v-40h-210v40z" />
    <glyph glyph-name="aogonek" unicode="&#x105;" horiz-adv-x="454" 
d="M380 302v-188c0 -43 2 -78 7 -114h-6c-19 -22 -51 -71 -51 -112c0 -34 21 -49 49 -49c19 0 34 4 46 10l9 -30c-17 -12 -47 -18 -68 -18c-47 0 -81 27 -81 75c0 50 34 96 57 129l-6 64h-2c-24 -37 -77 -80 -154 -80c-97 0 -141 68 -141 132c0 111 97 178 293 176v13
c0 47 -9 142 -123 141c-42 0 -86 -11 -121 -36l-15 35c44 29 98 41 141 41c139 0 166 -104 166 -189zM332 154v103c-105 3 -243 -13 -243 -128c0 -69 46 -100 96 -100c80 0 126 49 142 96c4 10 5 21 5 29z" />
    <glyph glyph-name="a.superior" horiz-adv-x="326" 
d="M282 266h-38l-5 47h-2c-17 -24 -53 -52 -102 -52c-67 0 -101 43 -101 94c0 68 68 117 202 112v12c0 19 -10 76 -82 76c-29 0 -58 -7 -82 -27l-13 30c31 24 71 33 103 33c95 0 115 -69 115 -141v-107c0 -25 1 -51 5 -77zM236 366v67c-69 2 -159 -8 -159 -77
c0 -40 32 -60 66 -60c37 0 64 20 80 41c8 11 13 22 13 29z" />
    <glyph glyph-name="cacute" unicode="&#x107;" horiz-adv-x="446" 
d="M399 59l13 -38c-21 -10 -71 -31 -141 -31c-138 0 -230 101 -230 245c0 152 104 256 247 256c59 0 108 -17 126 -30l-17 -39c-23 13 -60 28 -113 28c-129 0 -195 -99 -195 -211c0 -126 79 -208 190 -208c57 0 94 16 120 28zM308 688h70l-122 -138h-37z" />
    <glyph glyph-name="ccaron" unicode="&#x10d;" horiz-adv-x="446" 
d="M399 59l13 -38c-21 -10 -71 -31 -141 -31c-138 0 -230 101 -230 245c0 152 104 256 247 256c59 0 108 -17 126 -30l-17 -39c-23 13 -60 28 -113 28c-129 0 -195 -99 -195 -211c0 -126 79 -208 190 -208c57 0 94 16 120 28zM277 550h-38l-94 138h48l64 -100h2l64 100h45z
" />
    <glyph glyph-name="ccircumflex" unicode="&#x109;" horiz-adv-x="446" 
d="M399 59l13 -38c-21 -10 -71 -31 -141 -31c-138 0 -230 101 -230 245c0 152 104 256 247 256c59 0 108 -17 126 -30l-17 -39c-23 13 -60 28 -113 28c-129 0 -195 -99 -195 -211c0 -126 79 -208 190 -208c57 0 94 16 120 28zM238 688h35l94 -138h-48l-62 99h-2l-63 -99h-45
z" />
    <glyph glyph-name="cdotaccent" unicode="&#x10b;" horiz-adv-x="446" 
d="M399 59l13 -38c-21 -10 -71 -31 -141 -31c-138 0 -230 101 -230 245c0 152 104 256 247 256c59 0 108 -17 126 -30l-17 -39c-23 13 -60 28 -113 28c-129 0 -195 -99 -195 -211c0 -126 79 -208 190 -208c57 0 94 16 120 28zM256 578c-21 0 -37 19 -37 40s17 40 39 40
c21 0 37 -18 37 -40c0 -21 -15 -40 -39 -40z" />
    <glyph glyph-name="dcaron" unicode="&#x10f;" horiz-adv-x="554" 
d="M416 710h48v-598c0 -36 1 -78 4 -112h-43l-4 91h-2c-25 -53 -82 -102 -171 -102c-119 0 -207 99 -207 242c-1 160 98 260 216 260c83 0 136 -43 157 -85h2v304zM416 194v96c0 13 -1 31 -5 44c-16 64 -73 117 -151 117c-105 0 -171 -91 -171 -215c0 -108 54 -207 168 -207
c69 0 134 46 154 125c4 13 5 25 5 40zM531 539l-20 22c17 14 41 38 41 81c0 25 -16 49 -37 63l43 12c17 -11 37 -37 37 -71c0 -66 -50 -97 -64 -107z" />
    <glyph glyph-name="ebreve" unicode="&#x115;" horiz-adv-x="485" 
d="M442 245h-354c0 -153 83 -214 183 -214c70 0 106 14 133 27l12 -37c-18 -10 -67 -31 -151 -31c-138 0 -224 100 -224 241c0 160 92 260 216 260c157 0 187 -148 187 -217c0 -13 0 -20 -2 -29zM90 283h304c1 67 -27 168 -143 168c-106 0 -152 -94 -161 -168zM129 676h36
c6 -41 36 -74 79 -74c52 0 76 39 79 74h36c0 -69 -49 -114 -115 -114c-85 0 -115 62 -115 114z" />
    <glyph glyph-name="ecaron" unicode="&#x11b;" horiz-adv-x="485" 
d="M442 245h-354c0 -153 83 -214 183 -214c70 0 106 14 133 27l12 -37c-18 -10 -67 -31 -151 -31c-138 0 -224 100 -224 241c0 160 92 260 216 260c157 0 187 -148 187 -217c0 -13 0 -20 -2 -29zM90 283h304c1 67 -27 168 -143 168c-106 0 -152 -94 -161 -168zM265 550h-39
l-94 138h48l64 -100h2l64 100h45z" />
    <glyph glyph-name="edotaccent" unicode="&#x117;" horiz-adv-x="485" 
d="M442 245h-354c0 -153 83 -214 183 -214c70 0 106 14 133 27l12 -37c-18 -10 -67 -31 -151 -31c-138 0 -224 100 -224 241c0 160 92 260 216 260c157 0 187 -148 187 -217c0 -13 0 -20 -2 -29zM90 283h304c1 67 -27 168 -143 168c-106 0 -152 -94 -161 -168zM244 578
c-21 0 -37 19 -37 40s17 40 39 40c21 0 37 -18 37 -40c0 -21 -15 -40 -39 -40z" />
    <glyph glyph-name="emacron" unicode="&#x113;" horiz-adv-x="485" 
d="M442 245h-354c0 -153 83 -214 183 -214c70 0 106 14 133 27l12 -37c-18 -10 -67 -31 -151 -31c-138 0 -224 100 -224 241c0 160 92 260 216 260c157 0 187 -148 187 -217c0 -13 0 -20 -2 -29zM90 283h304c1 67 -27 168 -143 168c-106 0 -152 -94 -161 -168zM140 629h210
v-40h-210v40z" />
    <glyph glyph-name="eogonek" unicode="&#x119;" horiz-adv-x="485" 
d="M363 -150l8 -29c-17 -12 -41 -18 -66 -18c-48 0 -81 26 -81 74c0 47 42 92 77 114v1c-12 -1 -22 -2 -36 -2c-138 0 -224 100 -224 241c0 160 92 260 216 260c157 0 186 -148 186 -217c0 -13 0 -21 -1 -29h-354c0 -153 83 -214 182 -214c70 0 107 14 134 27l12 -37
c-15 -8 -40 -16 -47 -18c-42 -17 -100 -69 -100 -116c0 -33 22 -47 45 -47c15 0 35 3 49 10zM90 283h304c1 67 -27 168 -144 168c-105 0 -151 -94 -160 -168z" />
    <glyph glyph-name="gbreve" unicode="&#x11f;" horiz-adv-x="544" 
d="M464 356v-286c0 -123 -26 -184 -66 -222c-44 -42 -109 -57 -163 -57c-55 0 -116 14 -153 42l17 38c34 -22 81 -40 143 -40c101 0 174 52 174 194v68h-2c-25 -49 -81 -93 -167 -93c-121 0 -206 105 -206 236c0 167 110 255 216 255c95 0 142 -52 162 -92h2l3 81h44
c-3 -36 -4 -74 -4 -124zM416 199v96c0 18 -1 33 -6 47c-20 58 -70 109 -149 109c-102 0 -172 -83 -172 -210c0 -108 57 -201 170 -201c65 0 124 39 149 108c5 16 8 34 8 51zM144 676h36c6 -41 36 -74 79 -74c52 0 77 39 80 74h36c0 -69 -49 -114 -116 -114
c-85 0 -115 62 -115 114z" />
    <glyph glyph-name="gcircumflex" unicode="&#x11d;" horiz-adv-x="544" 
d="M464 356v-286c0 -123 -26 -184 -66 -222c-44 -42 -109 -57 -163 -57c-55 0 -116 14 -153 42l17 38c34 -22 81 -40 143 -40c101 0 174 52 174 194v68h-2c-25 -49 -81 -93 -167 -93c-121 0 -206 105 -206 236c0 167 110 255 216 255c95 0 142 -52 162 -92h2l3 81h44
c-3 -36 -4 -74 -4 -124zM416 199v96c0 18 -1 33 -6 47c-20 58 -70 109 -149 109c-102 0 -172 -83 -172 -210c0 -108 57 -201 170 -201c65 0 124 39 149 108c5 16 8 34 8 51zM251 693h35l94 -138h-48l-62 99h-2l-63 -99h-45z" />
    <glyph glyph-name="gcommaaccent" unicode="&#x123;" horiz-adv-x="544" 
d="M464 356v-286c0 -123 -26 -184 -66 -222c-44 -42 -109 -57 -163 -57c-55 0 -116 14 -153 42l17 38c34 -22 81 -40 143 -40c101 0 174 52 174 194v68h-2c-25 -49 -81 -93 -167 -93c-121 0 -206 105 -206 236c0 167 110 255 216 255c95 0 142 -52 162 -92h2l3 81h44
c-3 -36 -4 -74 -4 -124zM416 199v96c0 18 -1 33 -6 47c-20 58 -70 109 -149 109c-102 0 -172 -83 -172 -210c0 -108 57 -201 170 -201c65 0 124 39 149 108c5 16 8 34 8 51zM322 700l13 -26c-42 -6 -81 -25 -81 -68c0 -24 16 -47 37 -61l-40 -12c-20 12 -40 39 -40 70
c0 67 65 93 111 97z" />
    <glyph glyph-name="gdotaccent" unicode="&#x121;" horiz-adv-x="544" 
d="M464 356v-286c0 -123 -26 -184 -66 -222c-44 -42 -109 -57 -163 -57c-55 0 -116 14 -153 42l17 38c34 -22 81 -40 143 -40c101 0 174 52 174 194v68h-2c-25 -49 -81 -93 -167 -93c-121 0 -206 105 -206 236c0 167 110 255 216 255c95 0 142 -52 162 -92h2l3 81h44
c-3 -36 -4 -74 -4 -124zM416 199v96c0 18 -1 33 -6 47c-20 58 -70 109 -149 109c-102 0 -172 -83 -172 -210c0 -108 57 -201 170 -201c65 0 124 39 149 108c5 16 8 34 8 51zM271 582c-21 0 -37 19 -37 40s17 40 39 40c21 0 37 -19 37 -40s-15 -40 -39 -40z" />
    <glyph glyph-name="g_tildecomb" unicode="&#xe005;" horiz-adv-x="544" 
d="M447 356v-286c0 -123 -26 -184 -66 -222c-44 -42 -109 -57 -163 -57c-55 0 -116 14 -153 42l17 38c34 -22 81 -40 143 -40c101 0 174 52 174 194v68h-2c-25 -49 -81 -93 -167 -93c-121 0 -206 105 -206 236c0 167 110 255 216 255c95 0 142 -52 162 -92h2l3 81h44
c-3 -36 -4 -74 -4 -124zM399 199v96c0 18 -1 33 -6 47c-20 58 -70 109 -149 109c-102 0 -172 -83 -172 -210c0 -108 57 -201 170 -201c65 0 124 39 149 108c5 16 8 34 8 51zM194 573h-34c-1 53 23 87 60 87c20 0 35 -10 61 -22c16 -9 29 -16 42 -16c15 0 26 9 28 41h33
c0 -50 -17 -84 -60 -84c-18 0 -36 9 -57 20s-34 18 -46 18c-17 0 -25 -18 -27 -44z" />
    <glyph glyph-name="hcircumflex" unicode="&#x125;" horiz-adv-x="536" 
d="M81 0v710h48v-316h2c14 27 37 53 65 69c28 18 61 28 97 28c45 0 167 -23 167 -202v-289h-48v284c0 87 -34 165 -132 165c-68 0 -124 -49 -145 -108c-5 -15 -6 -28 -6 -48v-293h-48zM88 834h38l107 -109h-53l-72 74h-2l-72 -74h-50z" />
    <glyph glyph-name="ibreve" unicode="&#x12d;" horiz-adv-x="209" 
d="M129 0h-48v480h48v-480zM-6 676h36c6 -41 36 -74 79 -74c52 0 77 39 80 74h36c0 -69 -49 -114 -116 -114c-85 0 -115 62 -115 114z" />
    <glyph glyph-name="imacron" unicode="&#x12b;" horiz-adv-x="209" 
d="M129 0h-48v480h48v-480zM1 629h210v-40h-210v40z" />
    <glyph glyph-name="iogonek" unicode="&#x12f;" horiz-adv-x="209" 
d="M103 583c-22 0 -37 19 -37 41s17 42 39 42s38 -19 38 -42c0 -22 -15 -41 -40 -41zM129 480v-480h-6c-19 -23 -54 -73 -54 -116c0 -34 21 -49 49 -49c19 0 34 4 46 10l9 -30c-17 -12 -47 -18 -68 -18c-47 0 -81 27 -81 75c0 50 34 96 57 128v480h48z" />
    <glyph glyph-name="itilde" unicode="&#x129;" horiz-adv-x="209" 
d="M129 0h-48v480h48v-480zM28 572h-34c-1 54 23 88 60 88c19 0 35 -10 60 -22c16 -9 29 -16 42 -16c15 0 26 9 28 41h33c0 -50 -17 -84 -60 -84c-18 0 -36 9 -56 20c-21 11 -34 18 -46 18c-17 0 -25 -18 -27 -45z" />
    <glyph glyph-name="jcircumflex" unicode="&#x135;" horiz-adv-x="214" 
d="M-42 -209l-7 39c42 2 78 15 100 40c25 30 36 68 36 195v415h48v-447c0 -86 -10 -145 -51 -190c-35 -38 -95 -51 -126 -52zM87 678h35l94 -138h-48l-63 99h-2l-62 -99h-45z" />
    <glyph glyph-name="kcommaaccent" unicode="&#x137;" horiz-adv-x="423" 
d="M128 710v-461h2c12 15 31 37 46 53l170 178h58l-194 -199l221 -281h-58l-196 252l-49 -52v-200h-48v710h48zM162 -209l-14 26c42 6 81 25 81 68c0 24 -16 47 -37 61l40 12c20 -12 40 -39 40 -70c0 -67 -65 -93 -110 -97z" />
    <glyph glyph-name="lacute" unicode="&#x13a;" horiz-adv-x="212" 
d="M81 0v710h48v-710h-48zM160 852h73l-131 -113h-40z" />
    <glyph glyph-name="lcaron" unicode="&#x13e;" horiz-adv-x="219" 
d="M81 0v710h48v-710h-48zM191 538l-20 23c17 14 41 38 41 81c0 25 -16 49 -37 63l43 12c17 -11 37 -37 37 -71c0 -66 -50 -97 -64 -108z" />
    <glyph glyph-name="lcommaaccent" unicode="&#x13c;" horiz-adv-x="212" 
d="M81 0v710h48v-710h-48zM49 -209l-14 26c42 6 81 25 81 68c0 24 -16 47 -37 61l40 12c20 -12 40 -39 40 -70c0 -67 -65 -93 -110 -97z" />
    <glyph glyph-name="ldot" unicode="&#x140;" horiz-adv-x="222" 
d="M81 0v710h48v-710h-48zM213 349c-21 0 -36 19 -36 39s16 39 38 39c21 0 36 -18 36 -39c0 -20 -15 -39 -38 -39z" />
    <glyph glyph-name="m_uni0302" unicode="&#xe006;" horiz-adv-x="819" 
d="M81 0v365c0 44 -1 77 -4 115h45l3 -85h2c31 55 77 96 156 96c66 0 117 -44 138 -105h2c13 29 31 50 49 65c31 26 63 40 114 40c47 0 157 -26 157 -208v-283h-48v278c0 108 -42 172 -125 172c-60 0 -107 -44 -126 -95c-4 -14 -8 -30 -8 -47v-308h-48v300
c0 87 -41 150 -119 150c-64 0 -115 -52 -133 -108c-4 -13 -7 -30 -7 -46v-296h-48zM390 688h35l94 -138h-48l-62 99h-2l-63 -99h-45z" />
    <glyph glyph-name="nacute" unicode="&#x144;" horiz-adv-x="536" 
d="M81 0v365c0 44 -1 77 -4 115h45l3 -87h2c26 54 87 98 165 98c46 0 168 -23 168 -203v-288h-48v284c0 87 -34 166 -133 166c-67 0 -125 -48 -144 -110c-3 -12 -6 -28 -6 -43v-297h-48zM327 688h69l-122 -138h-37z" />
    <glyph glyph-name="ncaron" unicode="&#x148;" horiz-adv-x="536" 
d="M81 0v365c0 44 -1 77 -4 115h45l3 -87h2c26 54 87 98 165 98c46 0 168 -23 168 -203v-288h-48v284c0 87 -34 166 -133 166c-67 0 -125 -48 -144 -110c-3 -12 -6 -28 -6 -43v-297h-48zM289 550h-39l-94 138h48l65 -100h2l63 100h45z" />
    <glyph glyph-name="n_uni0302" unicode="&#xe007;" horiz-adv-x="536" 
d="M249 688h35l94 -138h-48l-62 99h-2l-63 -99h-45zM81 0v365c0 44 -1 77 -4 115h45l3 -87h2c26 54 87 98 165 98c46 0 168 -23 168 -203v-288h-48v284c0 87 -34 166 -133 166c-67 0 -125 -48 -144 -110c-3 -12 -6 -28 -6 -43v-297h-48z" />
    <glyph glyph-name="ncommaaccent" unicode="&#x146;" horiz-adv-x="536" 
d="M81 0v365c0 44 -1 77 -4 115h45l3 -87h2c26 54 87 98 165 98c46 0 168 -23 168 -203v-288h-48v284c0 87 -34 166 -133 166c-67 0 -125 -48 -144 -110c-3 -12 -6 -28 -6 -43v-297h-48zM220 -207l-14 26c42 6 81 25 81 68c0 24 -16 47 -37 61l40 12c20 -12 40 -39 40 -70
c0 -67 -65 -93 -110 -97z" />
    <glyph glyph-name="obreve" unicode="&#x14f;" horiz-adv-x="532" 
d="M268 491c133 0 223 -100 223 -246c0 -179 -123 -256 -230 -256c-124 0 -220 97 -220 247c0 164 108 255 227 255zM267 451c-123 0 -178 -109 -178 -212c0 -120 77 -210 175 -210c100 0 179 90 179 213c0 88 -49 209 -176 209zM150 676h36c6 -41 36 -74 79 -74
c52 0 76 39 79 74h36c0 -69 -49 -114 -115 -114c-85 0 -115 62 -115 114z" />
    <glyph glyph-name="ohungarumlaut" unicode="&#x151;" horiz-adv-x="532" 
d="M268 491c133 0 223 -100 223 -246c0 -179 -123 -256 -230 -256c-124 0 -220 97 -220 247c0 164 108 255 227 255zM267 451c-123 0 -178 -109 -178 -212c0 -120 77 -210 175 -210c100 0 179 90 179 213c0 88 -49 209 -176 209zM262 688h65l-118 -128h-36zM388 688h65
l-118 -128h-36z" />
    <glyph glyph-name="omacron" unicode="&#x14d;" horiz-adv-x="532" 
d="M268 491c133 0 223 -100 223 -246c0 -179 -123 -256 -230 -256c-124 0 -220 97 -220 247c0 164 108 255 227 255zM267 451c-123 0 -178 -109 -178 -212c0 -120 77 -210 175 -210c100 0 179 90 179 213c0 88 -49 209 -176 209zM161 629h210v-40h-210v40z" />
    <glyph glyph-name="oslashacute" unicode="&#x1ff;" horiz-adv-x="532" 
d="M269 491c43 0 88 -13 125 -39l39 55l31 -21l-41 -60c44 -46 68 -109 68 -181c0 -179 -120 -256 -225 -256c-47 0 -92 13 -128 40l-41 -56l-28 25l40 57c-42 43 -68 106 -68 181c0 164 107 255 228 255zM137 91l233 324c-27 24 -62 36 -104 36c-126 0 -177 -113 -177 -212
c0 -52 13 -104 46 -148h2zM395 387l-232 -324c29 -24 62 -34 99 -34c106 0 181 92 181 214c0 39 -11 97 -46 144h-2zM322 688h70l-122 -138h-37z" />
    <glyph glyph-name="racute" unicode="&#x155;" horiz-adv-x="295" 
d="M80 0v336c0 48 -1 97 -4 144h44l2 -97h3c21 60 71 108 136 108c7 0 14 -1 20 -2v-46c-7 2 -14 2 -23 2c-66 0 -113 -57 -126 -134c-3 -14 -4 -30 -4 -46v-265h-48zM219 688h70l-122 -138h-37z" />
    <glyph glyph-name="rcaron" unicode="&#x159;" horiz-adv-x="295" 
d="M80 0v336c0 48 -1 97 -4 144h44l2 -97h3c21 60 71 108 136 108c7 0 14 -1 20 -2v-46c-7 2 -14 2 -23 2c-66 0 -113 -57 -126 -134c-3 -14 -4 -30 -4 -46v-265h-48zM190 550h-38l-94 138h48l63 -100h2l65 100h45z" />
    <glyph glyph-name="rcommaaccent" unicode="&#x157;" horiz-adv-x="295" 
d="M80 0v336c0 48 -1 97 -4 144h44l2 -97h3c21 60 71 108 136 108c7 0 14 -1 20 -2v-46c-7 2 -14 2 -23 2c-66 0 -113 -57 -126 -134c-3 -14 -4 -30 -4 -46v-265h-48zM56 -209l-13 26c42 6 81 25 81 68c0 24 -16 47 -37 61l40 12c20 -12 40 -39 40 -70
c0 -67 -65 -93 -111 -97z" />
    <glyph glyph-name="sacute" unicode="&#x15b;" horiz-adv-x="373" 
d="M44 23l17 40c26 -16 65 -33 108 -33c76 0 112 41 112 91c0 53 -32 81 -101 109c-79 30 -122 73 -122 131c0 69 55 130 148 130c44 0 82 -13 106 -30l-18 -39c-17 12 -48 29 -96 29c-61 0 -93 -39 -93 -83c0 -50 34 -72 99 -99c78 -30 124 -69 124 -142
c0 -82 -64 -137 -162 -137c-46 0 -90 13 -122 33zM246 688h69l-122 -138h-37z" />
    <glyph glyph-name="scedilla" unicode="&#x15f;" horiz-adv-x="373" 
d="M44 23l17 40c26 -16 65 -33 108 -33c76 0 112 41 112 91c0 53 -32 81 -101 109c-79 30 -122 73 -122 131c0 69 55 130 148 130c44 0 82 -13 106 -30l-18 -39c-17 12 -48 29 -96 29c-61 0 -93 -39 -93 -83c0 -50 34 -72 99 -99c78 -30 124 -69 124 -142
c0 -68 -45 -118 -118 -132l-31 -49c36 -5 68 -30 68 -67c0 -55 -43 -77 -94 -77c-19 0 -44 7 -60 16l12 34c16 -9 35 -13 54 -13c25 0 48 9 47 35c-1 30 -35 41 -78 45l43 71h-5c-47 0 -90 13 -122 33z" />
    <glyph glyph-name="scircumflex" unicode="&#x15d;" horiz-adv-x="373" 
d="M44 23l17 40c26 -16 65 -33 108 -33c76 0 112 41 112 91c0 53 -32 81 -101 109c-79 30 -122 73 -122 131c0 69 55 130 148 130c44 0 82 -13 106 -30l-18 -39c-17 12 -48 29 -96 29c-61 0 -93 -39 -93 -83c0 -50 34 -72 99 -99c78 -30 124 -69 124 -142
c0 -82 -64 -137 -162 -137c-46 0 -90 13 -122 33zM169 688h35l94 -138h-48l-62 99h-2l-63 -99h-45z" />
    <glyph glyph-name="scommaaccent" unicode="&#x219;" horiz-adv-x="373" 
d="M44 23l17 40c26 -16 65 -33 108 -33c76 0 112 41 112 91c0 53 -32 81 -101 109c-79 30 -122 73 -122 131c0 69 55 130 148 130c44 0 82 -13 106 -30l-18 -39c-17 12 -48 29 -96 29c-61 0 -93 -39 -93 -83c0 -50 34 -72 99 -99c78 -30 124 -69 124 -142
c0 -82 -64 -137 -162 -137c-46 0 -90 13 -122 33zM131 -209l-14 26c42 6 81 25 81 68c0 24 -16 47 -37 61l40 12c20 -12 40 -39 40 -70c0 -67 -65 -93 -110 -97z" />
    <glyph glyph-name="tcaron" unicode="&#x165;" horiz-adv-x="319" 
d="M99 568l48 18v-106h137v-39h-137v-312c0 -61 19 -99 71 -99c24 0 42 3 54 7l6 -36c-15 -7 -37 -12 -66 -12c-36 0 -65 11 -83 34c-22 25 -30 66 -30 115v303h-81v39h81v88zM246 543l-20 22c17 14 41 37 41 79c0 24 -17 47 -37 61l43 12c17 -10 37 -36 37 -69
c0 -65 -50 -95 -64 -105z" />
    <glyph glyph-name="tcommaaccent" unicode="&#x163;" horiz-adv-x="309" 
d="M99 568l48 18v-106h137v-39h-137v-312c0 -61 19 -99 70 -99c25 0 43 3 55 7l6 -36c-16 -7 -38 -12 -67 -12c-35 0 -64 11 -82 34c-22 25 -30 66 -30 115v303h-81v39h81v88zM120 -217l-14 26c42 6 81 25 81 68c0 24 -16 47 -37 61l40 12c20 -12 40 -39 40 -70
c0 -67 -65 -93 -110 -97z" />
    <glyph glyph-name="ubreve" unicode="&#x16d;" horiz-adv-x="531" 
d="M451 480v-363c0 -42 1 -80 4 -117h-45l-3 86h-2c-24 -45 -79 -97 -164 -97c-61 0 -164 31 -164 212v279h48v-270c0 -104 32 -179 127 -179c70 0 121 49 142 97c5 15 9 34 9 53v299h48zM150 676h36c6 -41 36 -74 79 -74c52 0 77 39 80 74h36c0 -69 -49 -114 -116 -114
c-85 0 -115 62 -115 114z" />
    <glyph glyph-name="uhungarumlaut" unicode="&#x171;" horiz-adv-x="531" 
d="M451 480v-363c0 -42 1 -80 4 -117h-45l-3 86h-2c-24 -45 -79 -97 -164 -97c-61 0 -164 31 -164 212v279h48v-270c0 -104 32 -179 127 -179c70 0 121 49 142 97c5 15 9 34 9 53v299h48zM263 688h65l-118 -128h-36zM389 688h65l-118 -128h-36z" />
    <glyph glyph-name="umacron" unicode="&#x16b;" horiz-adv-x="531" 
d="M451 480v-363c0 -42 1 -80 4 -117h-45l-3 86h-2c-24 -45 -79 -97 -164 -97c-61 0 -164 31 -164 212v279h48v-270c0 -104 32 -179 127 -179c70 0 121 49 142 97c5 15 9 34 9 53v299h48zM160 629h210v-40h-210v40z" />
    <glyph glyph-name="uogonek" unicode="&#x173;" horiz-adv-x="531" 
d="M451 480v-362c0 -43 1 -82 4 -118l-3 5c-19 -24 -54 -73 -54 -117c0 -34 21 -49 49 -49c19 0 34 4 46 10l9 -30c-17 -12 -47 -18 -68 -18c-47 0 -81 27 -81 75c0 50 34 96 57 129l-3 81h-2c-24 -45 -79 -97 -164 -97c-61 0 -164 31 -164 212v279h48v-270
c0 -104 32 -179 127 -179c70 0 122 49 142 97c5 15 9 34 9 53v299h48z" />
    <glyph glyph-name="uring" unicode="&#x16f;" horiz-adv-x="531" 
d="M451 480v-363c0 -42 1 -80 4 -117h-45l-3 86h-2c-24 -45 -79 -97 -164 -97c-61 0 -164 31 -164 212v279h48v-270c0 -104 32 -179 127 -179c70 0 121 49 142 97c5 15 9 34 9 53v299h48zM266 536c-53 0 -93 39 -93 88c0 51 38 91 94 91c51 0 90 -39 90 -91
c0 -50 -43 -88 -91 -88zM265 566c32 0 55 27 55 60s-23 59 -56 59c-31 0 -52 -28 -52 -61c0 -29 23 -58 53 -58z" />
    <glyph glyph-name="utilde" unicode="&#x169;" horiz-adv-x="531" 
d="M451 480v-363c0 -42 1 -80 4 -117h-45l-3 86h-2c-24 -45 -79 -97 -164 -97c-61 0 -164 31 -164 212v279h48v-270c0 -104 32 -179 127 -179c70 0 121 49 142 97c5 15 9 34 9 53v299h48zM188 572h-34c-1 54 23 88 60 88c20 0 35 -10 60 -22c16 -9 29 -16 42 -16
c15 0 26 9 28 41h33c0 -50 -17 -84 -60 -84c-18 0 -36 9 -56 20c-21 11 -34 18 -46 18c-17 0 -25 -18 -27 -45z" />
    <glyph glyph-name="wacute" unicode="&#x1e83;" horiz-adv-x="722" 
d="M23 480h49l81 -273c16 -56 30 -104 41 -150h2c12 44 29 95 48 150l96 273h45l92 -271c20 -58 35 -107 47 -152h2c10 45 25 93 44 151l85 272h49l-160 -480h-41l-91 267c-20 58 -37 110 -50 164h-2c-14 -56 -32 -110 -52 -165l-95 -266h-42zM420 688h69l-122 -138h-37z
" />
    <glyph glyph-name="wcircumflex" unicode="&#x175;" horiz-adv-x="722" 
d="M23 480h49l81 -273c16 -56 30 -104 41 -150h2c12 44 29 95 48 150l96 273h45l92 -271c20 -58 35 -107 47 -152h2c10 45 25 93 44 151l85 272h49l-160 -480h-41l-91 267c-20 58 -37 110 -50 164h-2c-14 -56 -32 -110 -52 -165l-95 -266h-42zM342 688h35l94 -138h-48
l-62 99h-2l-63 -99h-45z" />
    <glyph glyph-name="wdieresis" unicode="&#x1e85;" horiz-adv-x="722" 
d="M23 480h49l81 -273c16 -56 30 -104 41 -150h2c12 44 29 95 48 150l96 273h45l92 -271c20 -58 35 -107 47 -152h2c10 45 25 93 44 151l85 272h49l-160 -480h-41l-91 267c-20 58 -37 110 -50 164h-2c-14 -56 -32 -110 -52 -165l-95 -266h-42zM276 578h-2
c-22 0 -36 19 -36 39s17 39 38 39s37 -18 37 -39c0 -20 -14 -39 -37 -39zM446 578h-2c-22 0 -36 19 -36 39s17 39 38 39s37 -18 37 -39c0 -20 -14 -39 -37 -39z" />
    <glyph glyph-name="wgrave" unicode="&#x1e81;" horiz-adv-x="722" 
d="M23 480h49l81 -273c16 -56 30 -104 41 -150h2c12 44 29 95 48 150l96 273h45l92 -271c20 -58 35 -107 47 -152h2c10 45 25 93 44 151l85 272h49l-160 -480h-41l-91 267c-20 58 -37 110 -50 164h-2c-14 -56 -32 -110 -52 -165l-95 -266h-42zM242 688h70l89 -138h-37z" />
    <glyph glyph-name="ycircumflex" unicode="&#x177;" horiz-adv-x="440" 
d="M11 480h51l126 -314c13 -34 26 -73 35 -103h2c10 29 22 67 37 106l117 311h51l-144 -358c-58 -149 -99 -238 -162 -293c-38 -32 -72 -46 -84 -50l-15 40c24 9 56 26 84 53c24 24 56 64 80 121c4 10 6 16 6 21c0 4 -2 11 -6 21zM201 688h35l94 -138h-48l-63 99h-2l-62 -99
h-45z" />
    <glyph glyph-name="ygrave" unicode="&#x1ef3;" horiz-adv-x="440" 
d="M11 480h51l126 -314c13 -34 26 -73 35 -103h2c10 29 22 67 37 106l117 311h51l-144 -358c-58 -149 -99 -238 -162 -293c-38 -32 -72 -46 -84 -50l-15 40c24 9 56 26 84 53c24 24 56 64 80 121c4 10 6 16 6 21c0 4 -2 11 -6 21zM103 688h70l89 -138h-37z" />
    <glyph glyph-name="uni0233" unicode="&#x233;" horiz-adv-x="440" 
d="M11 480h51l126 -314c13 -34 26 -73 35 -103h2c10 29 22 67 37 106l117 311h51l-144 -358c-58 -149 -99 -238 -162 -293c-38 -32 -72 -46 -84 -50l-15 40c24 9 56 26 84 53c24 24 56 64 80 121c4 10 6 16 6 21c0 4 -2 11 -6 21zM115 629h210v-40h-210v40z" />
    <glyph glyph-name="zacute" unicode="&#x17a;" horiz-adv-x="403" 
d="M16 0v29l259 341c18 23 36 45 55 69v2h-293v39h351l-1 -32l-259 -341c-17 -22 -33 -44 -51 -66v-2h312v-39h-373zM262 688h70l-122 -138h-37z" />
    <glyph glyph-name="zdotaccent" unicode="&#x17c;" horiz-adv-x="403" 
d="M16 0v29l259 341c18 23 36 45 55 69v2h-293v39h351l-1 -32l-259 -341c-17 -22 -33 -44 -51 -66v-2h312v-39h-373zM202 578c-21 0 -37 19 -37 40s17 40 39 40c21 0 37 -18 37 -40c0 -21 -15 -40 -39 -40z" />
    <glyph glyph-name="aeacute" unicode="&#x1fd;" horiz-adv-x="755" 
d="M712 251h-334c-5 -147 69 -221 169 -221c69 0 109 18 128 28l13 -37c-29 -16 -80 -32 -145 -32c-84 0 -158 44 -182 120h-2c-26 -77 -96 -120 -178 -120c-98 0 -141 67 -141 128c0 107 97 176 294 172v24c0 30 -13 138 -125 138c-43 0 -92 -15 -120 -36l-15 34
c48 32 104 42 138 42c92 0 138 -47 152 -116h2c29 71 90 116 170 116c149 0 178 -154 178 -211c0 -12 0 -21 -2 -29zM334 168v83c-99 3 -245 -10 -245 -129c0 -59 44 -93 97 -93c80 -1 127 47 143 102c4 12 5 25 5 37zM379 289h285c3 60 -32 163 -132 163
c-102 0 -149 -95 -153 -163zM438 688h70l-122 -138h-37z" />
    <glyph glyph-name="space_uni0326" unicode="&#xf6c3;" 
d="M101 -209l-14 26c42 6 81 25 81 68c0 24 -16 47 -37 61l40 12c20 -12 40 -39 40 -70c0 -67 -65 -93 -110 -97z" />
    <glyph glyph-name="acute.cap" unicode="&#xf6c9;" 
d="M222 823h73l-131 -113h-40z" />
    <glyph glyph-name="breve.cap" unicode="&#xefee;" 
d="M36 821h35c6 -23 26 -50 79 -50s74 24 79 50h35c-2 -50 -35 -93 -115 -93c-78 0 -111 42 -113 93z" />
    <glyph glyph-name="caron.cap" unicode="&#xf6ca;" 
d="M170 710h-38l-107 109h53l73 -74h2l71 74h50z" />
    <glyph glyph-name="cedilla.cap" unicode="&#xeff2;" 
d="M145 1h38l-37 -55c38 -6 69 -33 69 -70c0 -51 -44 -74 -93 -74c-23 0 -47 7 -62 16l12 34c15 -7 31 -13 54 -13c25 0 46 11 46 34c0 30 -35 41 -77 46z" />
    <glyph glyph-name="circumflex.cap" unicode="&#xeff7;" 
d="M130 819h38l107 -109h-53l-72 74h-2l-72 -74h-50z" />
    <glyph glyph-name="space_uni0326.cap" unicode="&#xf634;" 
d="M101 -209l-14 26c42 6 81 25 81 68c0 24 -16 47 -37 61l40 12c20 -12 40 -39 40 -70c0 -67 -65 -93 -110 -97z" />
    <glyph glyph-name="dieresis.cap" unicode="&#xf6cb;" 
d="M63 726c-22 0 -36 18 -36 40c0 21 16 40 37 40c22 0 37 -18 37 -40s-13 -40 -38 -40zM235 726c-22 0 -36 18 -36 40c0 21 16 40 37 40c22 0 37 -18 37 -40s-13 -40 -38 -40z" />
    <glyph glyph-name="dotaccent.cap" unicode="&#xefed;" 
d="M151 727h-2c-20 0 -36 20 -36 39s17 39 38 39s37 -20 37 -39s-16 -39 -37 -39z" />
    <glyph glyph-name="grave.cap" unicode="&#xf6ce;" 
d="M5 823h73l98 -113h-40z" />
    <glyph glyph-name="hungarumlaut.cap" unicode="&#xf6cf;" 
d="M144 822h67l-117 -109h-39zM270 822h67l-117 -109h-39z" />
    <glyph glyph-name="macron.cap" unicode="&#xf6d0;" 
d="M37 772h228v-39h-228v39z" />
    <glyph glyph-name="ogonek.cap" unicode="&#xeff1;" 
d="M149 5h42c-19 -20 -70 -73 -70 -117c0 -32 21 -48 49 -48c17 0 33 4 46 10l9 -29c-16 -12 -47 -18 -67 -18c-48 0 -82 27 -82 74c0 51 42 97 73 128z" />
    <glyph glyph-name="ring.cap" unicode="&#xeff3;" horiz-adv-x="400" 
d="M203 867c52 0 89 -38 89 -86c0 -47 -40 -83 -90 -83c-53 0 -91 37 -91 83c0 47 37 86 92 86zM200 839c-30 0 -49 -27 -49 -58c0 -27 21 -54 50 -54c30 0 51 25 51 56s-21 56 -52 56z" />
    <glyph glyph-name="tilde.cap" unicode="&#xeff5;" 
d="M68 716h-33c-1 46 22 86 63 86c19 0 34 -8 57 -21c15 -8 32 -17 50 -17c15 0 25 6 27 37h33c0 -46 -18 -80 -60 -80c-18 0 -35 7 -59 20c-20 10 -35 19 -50 19c-19 0 -25 -18 -28 -44z" />
    <glyph glyph-name="Alpha" unicode="&#x391;" horiz-adv-x="585" 
d="M428 236h-266l-83 -236h-49l244 674h46l242 -674h-49zM177 276h237l-82 225c-17 47 -26 81 -35 119h-3c-9 -39 -20 -74 -35 -117z" />
    <glyph glyph-name="Beta" unicode="&#x392;" horiz-adv-x="505" 
d="M81 1v663c38 9 86 15 136 15c84 0 139 -18 176 -56c28 -27 42 -63 42 -110c0 -69 -49 -127 -116 -150v-3c57 -13 143 -62 143 -172c0 -55 -20 -97 -50 -129c-45 -45 -118 -64 -214 -64c-51 0 -90 4 -117 6zM129 632v-254h98c98 0 159 58 159 132c0 95 -72 129 -172 129
c-44 0 -70 -3 -85 -7zM129 339v-299c20 -4 47 -5 83 -5c103 0 200 37 200 152c0 106 -91 152 -198 152h-85z" />
    <glyph glyph-name="Gamma" unicode="&#x393;" horiz-adv-x="433" 
d="M81 674h333v-40h-285v-634h-48v674z" />
    <glyph glyph-name="uni0394" unicode="&#x394;" horiz-adv-x="603" 
d="M31 0v33l246 641h46l245 -641v-33h-537zM80 40h438l-163 426c-19 50 -42 110 -55 154h-3c-10 -35 -30 -89 -49 -137z" />
    <glyph glyph-name="Epsilon" unicode="&#x395;" horiz-adv-x="466" 
d="M398 375v-40h-269v-295h301v-40h-349v674h333v-40h-285v-259h269z" />
    <glyph glyph-name="Zeta" unicode="&#x396;" horiz-adv-x="539" 
d="M34 0v31l406 600v3h-373v40h434v-32l-407 -599v-3h412v-40h-472z" />
    <glyph glyph-name="Eta" unicode="&#x397;" horiz-adv-x="630" 
d="M81 674h48v-297h372v297h48v-674h-48v337h-372v-337h-48v674z" />
    <glyph glyph-name="Theta" unicode="&#x398;" horiz-adv-x="671" 
d="M332 -11c-166 0 -295 131 -295 342c0 221 135 355 303 355c170 0 294 -133 294 -342c0 -238 -146 -355 -302 -355zM335 29c159 0 249 145 249 312c0 142 -78 305 -247 305c-171 0 -250 -156 -250 -314c0 -152 89 -303 248 -303zM181 370h309v-40h-309v40z" />
    <glyph glyph-name="Iota" unicode="&#x399;" horiz-adv-x="211" 
d="M81 674h48v-674h-48v674z" />
    <glyph glyph-name="Kappa" unicode="&#x39a;" horiz-adv-x="498" 
d="M81 0v674h48v-341h3c20 26 40 49 58 70l239 271h58l-256 -286l280 -388h-57l-256 355l-69 -76v-279h-48z" />
    <glyph glyph-name="Lambda" unicode="&#x39b;" horiz-adv-x="585" 
d="M563 0h-49l-182 501c-16 47 -25 81 -35 119h-2c-10 -39 -21 -74 -35 -117l-181 -503h-49l244 674h46z" />
    <glyph glyph-name="Mu" unicode="&#x39c;" horiz-adv-x="778" 
d="M670 0l-20 320c-6 101 -14 225 -14 298h-2c-25 -73 -52 -151 -91 -251l-142 -367h-33l-133 358c-38 105 -67 186 -87 260h-2c-2 -79 -7 -196 -15 -308l-21 -310h-47l49 674h55l145 -388c32 -86 55 -154 74 -219h3c17 62 41 128 75 218l151 389h57l45 -674h-47z" />
    <glyph glyph-name="Nu" unicode="&#x39d;" horiz-adv-x="638" 
d="M128 0h-46v674h45l262 -398c55 -84 94 -147 127 -212l2 1c-7 91 -8 168 -8 274v335h46v-674h-44l-257 392c-50 78 -96 149 -131 218l-2 -1c5 -83 6 -156 6 -268v-341z" />
    <glyph glyph-name="Xi" unicode="&#x39e;" horiz-adv-x="519" 
d="M52 674h425v-40h-425v40zM87 371h356v-40h-356v40zM44 40h442v-40h-442v40z" />
    <glyph glyph-name="Omicron" unicode="&#x39f;" horiz-adv-x="671" 
d="M332 -11c-166 0 -295 131 -295 342c0 221 134 355 303 355c170 0 294 -133 294 -342c0 -238 -146 -355 -302 -355zM335 29c160 0 249 145 249 312c0 143 -78 305 -247 305c-171 0 -250 -156 -250 -314c0 -152 88 -303 248 -303z" />
    <glyph glyph-name="Pi" unicode="&#x3a0;" horiz-adv-x="614" 
d="M532 674v-674h-48v634h-355v-634h-48v674h451z" />
    <glyph glyph-name="Rho" unicode="&#x3a1;" horiz-adv-x="502" 
d="M81 0v666c39 7 88 13 145 13c80 0 141 -21 178 -57c33 -31 52 -76 52 -132c0 -58 -16 -101 -47 -135c-43 -49 -115 -75 -198 -75c-31 0 -58 1 -82 8v-288h-48zM129 631v-301c23 -8 53 -10 86 -10c121 0 193 58 193 165c0 106 -77 154 -184 154c-44 0 -77 -4 -95 -8z" />
    <glyph glyph-name="Sigma" unicode="&#x3a3;" horiz-adv-x="536" 
d="M88 44v-4h423v-40h-488v31l256 304l-242 306v33h438v-40h-375v-3l234 -294z" />
    <glyph glyph-name="Tau" unicode="&#x3a4;" horiz-adv-x="465" 
d="M209 0v634h-220v40h488v-40h-220v-634h-48z" />
    <glyph glyph-name="Upsilon" unicode="&#x3a5;" horiz-adv-x="566" 
d="M12 643l10 37c42 -5 106 -44 146 -91c52 -60 99 -151 114 -267h2c20 120 81 213 131 267c43 45 97 81 138 91l10 -36c-62 -28 -185 -116 -240 -317c-10 -35 -19 -82 -19 -138v-189h-48v191c0 49 -7 100 -16 138c-49 204 -159 294 -228 314z" />
    <glyph glyph-name="Phi" unicode="&#x3a6;" horiz-adv-x="677" 
d="M362 26v-51h-48v51c-132 8 -276 101 -276 307c0 209 151 311 278 316v49h48v-49c138 -6 276 -111 276 -313c0 -204 -141 -304 -278 -310zM315 62v551c-102 -3 -227 -99 -227 -277c0 -166 107 -262 227 -274zM363 613v-551c117 7 227 107 227 274c0 176 -113 269 -227 277
z" />
    <glyph glyph-name="Chi" unicode="&#x3a7;" horiz-adv-x="546" 
d="M515 0h-55l-102 166c-42 63 -66 101 -89 140h-2c-22 -39 -43 -76 -85 -141l-97 -165h-55l214 341l-205 333h54l109 -180c28 -45 49 -80 69 -116h2c21 39 42 70 71 116l113 180h56l-215 -328z" />
    <glyph glyph-name="Psi" unicode="&#x3a8;" horiz-adv-x="650" 
d="M600 674v-195c0 -159 -99 -253 -251 -260v-219h-48v219c-125 4 -251 67 -251 239v216h48v-206c0 -143 83 -203 203 -209v415h48v-415c106 5 203 68 203 221v194h48z" />
    <glyph glyph-name="uni03A9" unicode="&#x3a9;" horiz-adv-x="681" 
d="M498 44v-3h154v-41h-226v34c87 57 163 177 163 320c0 129 -79 292 -246 292c-166 0 -251 -153 -251 -294c0 -137 78 -263 162 -318v-34h-226v41h154v3c-74 62 -140 171 -140 308c0 202 135 334 303 334c174 0 294 -136 294 -327c0 -144 -65 -252 -141 -315z" />
    <glyph glyph-name="Alphatonos" unicode="&#x386;" horiz-adv-x="585" 
d="M429 236h-267l-83 -236h-49l244 674h46l243 -674h-49zM177 276h238l-82 225c-17 47 -26 81 -36 119h-2c-10 -39 -20 -74 -35 -117zM100 674h53l-33 -143h-30z" />
    <glyph glyph-name="Epsilontonos" unicode="&#x388;" horiz-adv-x="511" 
d="M444 375v-40h-269v-295h301v-40h-349v674h333v-40h-285v-259h269zM11 674h53l-34 -143h-30z" />
    <glyph glyph-name="Etatonos" unicode="&#x389;" horiz-adv-x="676" 
d="M127 674h47v-297h372v297h48v-674h-48v337h-372v-337h-47v674zM10 674h53l-33 -143h-30z" />
    <glyph glyph-name="Iotatonos" unicode="&#x38a;" horiz-adv-x="256" 
d="M127 674h48v-674h-48v674zM11 674h53l-34 -143h-30z" />
    <glyph glyph-name="Iotadieresis" unicode="&#x3aa;" horiz-adv-x="211" 
d="M20 710h-2c-22 0 -36 19 -36 39s17 39 38 39s37 -18 37 -39c0 -20 -14 -39 -37 -39zM191 710h-2c-22 0 -36 19 -36 39s17 39 38 39s37 -18 37 -39c0 -20 -14 -39 -37 -39zM81 674h48v-674h-48v674z" />
    <glyph glyph-name="Omicrontonos" unicode="&#x38c;" horiz-adv-x="689" 
d="M350 -11c-166 0 -295 131 -295 342c0 221 134 355 303 355c170 0 294 -133 294 -342c0 -238 -146 -355 -302 -355zM353 29c160 0 249 145 249 312c0 143 -78 305 -247 305c-171 0 -250 -156 -250 -314c0 -152 88 -303 248 -303zM10 674h53l-33 -143h-30z" />
    <glyph glyph-name="Upsilontonos" unicode="&#x38e;" horiz-adv-x="663" 
d="M109 643l10 37c41 -5 106 -44 146 -91c52 -60 99 -151 114 -267h2c20 120 81 213 131 267c43 45 97 81 138 91l10 -35c-62 -29 -185 -117 -240 -318c-10 -35 -19 -82 -19 -138v-189h-48v191c0 49 -7 100 -16 138c-49 205 -159 295 -228 314zM10 674h53l-33 -143h-30z" />
    <glyph glyph-name="Upsilondieresis" unicode="&#x3ab;" horiz-adv-x="566" 
d="M202 696h-2c-22 0 -36 19 -36 39s17 39 38 39s37 -18 37 -39c0 -20 -14 -39 -37 -39zM372 696h-2c-22 0 -36 19 -36 39s17 39 38 39s37 -18 37 -39c0 -20 -14 -39 -37 -39zM12 643l10 37c42 -5 106 -44 146 -91c52 -60 99 -151 114 -267h2c20 120 81 213 131 267
c43 45 97 81 138 91l10 -36c-62 -28 -185 -116 -240 -317c-10 -35 -19 -82 -19 -138v-189h-48v191c0 49 -7 100 -16 138c-49 204 -159 294 -228 314z" />
    <glyph glyph-name="Omegatonos" unicode="&#x38f;" horiz-adv-x="697" 
d="M514 44v-3h154v-41h-226v34c87 55 162 175 162 318c0 129 -79 294 -245 294s-251 -154 -251 -295c0 -137 77 -264 162 -317v-34h-226v41h154v3c-76 62 -140 170 -140 306c0 203 135 336 302 336c174 0 294 -138 294 -329c0 -145 -63 -253 -140 -313zM10 674h53l-33 -143
h-30z" />
    <glyph glyph-name="alpha" unicode="&#x3b1;" horiz-adv-x="532" 
d="M423 480h39c-4 -35 -12 -217 -12 -361c0 -59 11 -89 50 -91l-6 -38c-6 -1 -13 -1 -17 -1c-34 0 -68 28 -68 110h-3c-30 -57 -86 -110 -171 -110c-116 0 -194 97 -194 242c0 154 99 260 212 260c78 0 134 -43 159 -109h4c1 46 4 72 7 98zM89 229c0 -101 53 -200 156 -200
c72 0 136 69 155 141c6 26 6 48 6 80c0 22 0 40 -4 60c-14 70 -71 141 -149 141c-95 0 -164 -91 -164 -222z" />
    <glyph glyph-name="beta" unicode="&#x3b2;" horiz-adv-x="543" 
d="M129 61h-2v-74c0 -54 1 -143 11 -185h-46c-10 34 -13 98 -13 170v473c0 134 38 193 73 227c32 31 72 49 128 49c82 0 161 -63 161 -168c0 -89 -53 -141 -95 -160v-4c80 -15 156 -75 156 -196c0 -137 -107 -204 -206 -204c-76 0 -128 28 -167 72zM127 444v-318
c22 -41 81 -97 166 -97c90 0 161 66 161 161c0 112 -78 169 -185 171h-30v40h18c92 4 136 73 136 145c0 83 -52 135 -120 135c-98 0 -146 -87 -146 -237z" />
    <glyph glyph-name="gamma" unicode="&#x3b3;" horiz-adv-x="434" 
d="M238 -198h-49c3 91 7 190 -17 287c-39 158 -127 325 -173 391h56c48 -72 132 -247 166 -402h3c50 84 139 246 139 375v27h45c2 -7 2 -18 2 -30c0 -123 -81 -283 -170 -420c-6 -8 -5 -14 -5 -24c3 -66 3 -135 3 -204z" />
    <glyph glyph-name="delta" unicode="&#x3b4;" horiz-adv-x="528" 
d="M445 674l-18 -37c-23 17 -79 44 -136 44c-66 0 -99 -27 -99 -57c0 -33 31 -55 82 -94l81 -65c83 -62 132 -131 132 -231c0 -148 -98 -245 -221 -245c-115 0 -225 83 -225 245c0 124 86 212 196 264v4l-25 18c-25 21 -66 56 -66 100c0 47 46 101 151 101
c62 0 120 -24 148 -47zM327 431l-58 44c-92 -46 -180 -120 -180 -243c0 -136 94 -203 179 -203c91 0 171 73 171 202c0 81 -37 143 -112 200z" />
    <glyph glyph-name="epsilon" unicode="&#x3b5;" horiz-adv-x="422" 
d="M170 257v4c-69 12 -102 55 -102 103c0 62 62 127 180 127c57 0 106 -12 137 -36l-14 -36c-18 14 -74 33 -125 33c-77 0 -130 -34 -130 -88c0 -60 69 -86 147 -86h66v-39h-69c-98 0 -170 -32 -170 -103c0 -69 68 -107 151 -107c59 0 123 22 149 40l13 -36
c-27 -21 -96 -44 -167 -44c-92 0 -194 38 -194 145c0 59 49 112 128 123z" />
    <glyph glyph-name="zeta" unicode="&#x3b6;" horiz-adv-x="389" 
d="M328 -138l-34 10c15 23 35 90 36 117c-38 5 -82 13 -121 26c-97 28 -167 95 -167 223c0 144 98 321 270 428v3h-86c-44 0 -86 0 -120 9l6 35c32 -4 75 -4 112 -4h156l8 -38c-178 -95 -299 -274 -299 -425c0 -126 63 -170 149 -196c48 -15 90 -20 134 -25c5 -1 9 -5 9 -10
c0 -52 -32 -126 -53 -153z" />
    <glyph glyph-name="eta" unicode="&#x3b7;" horiz-adv-x="536" 
d="M125 393h2c26 54 87 98 165 98c46 0 168 -23 168 -203v-301c0 -54 1 -143 11 -185h-46c-10 34 -13 117 -13 179v303c0 87 -34 166 -133 166c-67 0 -125 -48 -144 -110c-3 -12 -6 -28 -6 -43v-297h-48v365c0 41 -3 85 -13 115h44c9 -20 13 -53 13 -87z" />
    <glyph glyph-name="theta" unicode="&#x3b8;" horiz-adv-x="513" 
d="M259 -11c-132 0 -218 123 -218 371c0 204 80 361 219 361c145 0 212 -144 212 -361c0 -225 -68 -371 -213 -371zM89 388h335c0 159 -53 293 -169 293c-102 0 -166 -142 -166 -293zM424 349h-335c0 -207 74 -320 172 -320c109 0 163 134 163 320z" />
    <glyph glyph-name="iota" unicode="&#x3b9;" horiz-adv-x="209" 
d="M129 480v-384c0 -48 7 -69 48 -67l-4 -37c-7 -2 -15 -3 -24 -3c-34 0 -68 18 -68 101v390h48z" />
    <glyph glyph-name="kappa" unicode="&#x3ba;" horiz-adv-x="460" 
d="M192 259v-2c49 -11 112 -79 167 -143l94 -114h-57l-89 106c-59 67 -115 119 -168 119h-10v-225h-48v388c0 33 -3 74 -10 92h45c9 -11 13 -42 13 -78v-143h5c107 92 184 164 252 221h59v-3c-72 -59 -157 -134 -253 -218z" />
    <glyph glyph-name="lambda" unicode="&#x3bb;" horiz-adv-x="444" 
d="M372 0l-116 310c-13 36 -25 69 -36 107h-3c-8 -30 -24 -69 -36 -103l-121 -314h-50l176 447c5 10 6 17 6 22s0 12 -5 26c-38 101 -72 186 -142 186c-4 0 -8 0 -14 -1l6 38c7 2 15 3 23 3c85 0 122 -87 177 -231l186 -490h-51z" />
    <glyph glyph-name="uni03BC" unicode="&#x3bc;" horiz-adv-x="534" 
d="M409 80h-2c-23 -39 -73 -90 -150 -90c-55 0 -105 19 -129 68v-70c0 -55 1 -144 11 -186h-44c-11 34 -15 99 -15 180v498h48v-294c0 -80 35 -155 130 -155c70 0 118 48 139 97c5 15 9 33 9 53v299h48v-363c0 -61 9 -86 48 -89l-6 -38c-9 -1 -6 -1 -15 -1
c-34 0 -68 22 -72 91z" />
    <glyph glyph-name="nu" unicode="&#x3bd;" horiz-adv-x="443" 
d="M7 480h50l110 -298c18 -45 32 -88 48 -130h3c41 75 151 263 151 380c0 18 0 34 -1 48h44c2 -9 4 -22 4 -34c0 -136 -98 -300 -184 -446h-44z" />
    <glyph glyph-name="xi" unicode="&#x3be;" horiz-adv-x="409" 
d="M340 435v-40h-27c-154 -1 -223 -82 -223 -173c0 -96 65 -146 167 -173c51 -13 102 -20 137 -24c4 0 8 -5 8 -10c0 -47 -30 -126 -51 -153l-35 10c15 23 36 91 37 117c-141 20 -311 61 -311 231c0 97 73 171 159 194v4c-77 23 -115 74 -115 141c0 76 63 162 194 162
c48 0 90 -11 113 -27l-15 -37c-17 11 -55 25 -104 25c-94 0 -140 -61 -140 -123c0 -77 68 -123 149 -124h57z" />
    <glyph glyph-name="omicron" unicode="&#x3bf;" horiz-adv-x="532" 
d="M261 -11c-124 0 -220 97 -220 247c0 164 108 255 227 255c133 0 223 -100 223 -246c0 -179 -123 -256 -230 -256zM264 29c100 0 179 90 179 213c0 88 -49 209 -176 209c-123 0 -178 -109 -178 -212c0 -120 77 -210 175 -210z" />
    <glyph glyph-name="rho" unicode="&#x3c1;" horiz-adv-x="546" 
d="M125 74h-3v-87c0 -54 1 -143 8 -185h-45c-9 34 -11 99 -11 179v225c0 114 24 166 56 206c32 41 90 79 166 79c129 0 209 -99 209 -240c0 -171 -101 -262 -218 -262c-67 0 -130 30 -162 85zM122 230v-43c0 -13 1 -26 4 -39c20 -71 84 -119 157 -119c110 0 174 94 174 219
c0 107 -58 203 -167 203c-78 0 -168 -62 -168 -221z" />
    <glyph glyph-name="sigma" unicode="&#x3c3;" horiz-adv-x="529" 
d="M376 454v-3c66 -40 106 -116 106 -204c0 -179 -123 -258 -222 -258c-123 0 -219 97 -219 248c0 164 102 254 235 254h93h40c33 0 90 -1 108 1l-2 -40c-23 0 -55 -1 -139 2zM262 29c93 0 172 93 172 216c0 88 -51 207 -173 207c-117 0 -172 -110 -172 -213
c0 -120 77 -210 173 -210z" />
    <glyph glyph-name="tau" unicode="&#x3c4;" horiz-adv-x="389" 
d="M294 32l-3 -36c-7 -4 -23 -7 -35 -7c-58 0 -91 41 -91 136v315h-60c-55 0 -81 -4 -102 -8l-7 27c14 10 48 21 107 21h278l-8 -40h-160v-319c0 -75 29 -91 59 -91c8 0 15 1 22 2z" />
    <glyph glyph-name="upsilon" unicode="&#x3c5;" horiz-adv-x="503" 
d="M371 480h46c16 -30 36 -111 36 -189c0 -137 -38 -302 -204 -302c-97 0 -174 60 -174 186v142c0 92 -2 139 -10 163h45c7 -9 13 -36 13 -87v-205c0 -117 70 -157 130 -157c96 0 152 88 152 252c0 93 -22 174 -34 197z" />
    <glyph glyph-name="phi" unicode="&#x3c6;" horiz-adv-x="600" 
d="M199 495l19 -29c-57 -34 -129 -105 -129 -222c0 -105 59 -197 187 -214v331c0 89 44 128 100 128c83 0 182 -88 182 -235c0 -167 -112 -251 -234 -263v-189h-48v189c-114 7 -235 80 -235 253c0 138 95 220 158 251zM324 363v-333c115 14 186 98 186 223
c0 107 -67 196 -134 196c-30 0 -52 -26 -52 -86z" />
    <glyph glyph-name="chi" unicode="&#x3c7;" horiz-adv-x="429" 
d="M26 480h52l141 -285h4c15 35 35 73 59 120l83 165h49l-171 -323l180 -347l-44 -15l-162 322h-3c-15 -34 -32 -71 -51 -109l-104 -213l-41 16l174 345z" />
    <glyph glyph-name="psi" unicode="&#x3c8;" horiz-adv-x="611" 
d="M292 -198v187c-121 7 -218 62 -218 241v146c0 41 -2 84 -9 104h45c7 -10 12 -36 12 -87v-157c0 -151 81 -204 170 -209v580h48v-580c95 5 173 95 173 258c0 100 -24 177 -38 195h48c19 -28 38 -102 38 -190c0 -142 -59 -293 -221 -301v-187h-48z" />
    <glyph glyph-name="omega" unicode="&#x3c9;" horiz-adv-x="670" 
d="M359 356l-2 -198c0 -73 46 -129 104 -129c57 0 120 72 120 222c0 103 -39 195 -86 236v2h49c46 -37 85 -124 85 -238c0 -184 -91 -262 -169 -262c-62 0 -105 35 -124 90h-3c-22 -57 -68 -90 -128 -90c-73 0 -164 66 -164 256c0 107 42 204 86 244h48v-2
c-47 -45 -86 -133 -86 -244c0 -158 71 -214 124 -214c55 0 101 57 101 128l-2 199h47z" />
    <glyph glyph-name="uni03C2" unicode="&#x3c2;" horiz-adv-x="392" 
d="M387 471l-14 -38c-25 11 -50 18 -91 18c-120 0 -193 -100 -193 -208s56 -166 157 -195c49 -14 80 -18 123 -24c7 -1 10 -4 10 -14c0 -47 -30 -121 -49 -148l-37 10c16 23 36 92 38 116c-41 6 -83 15 -113 23c-101 28 -177 101 -177 227c0 124 89 253 246 253
c39 0 77 -7 100 -20z" />
    <glyph glyph-name="alphatonos" unicode="&#x3ac;" horiz-adv-x="532" 
d="M285 678h61l-85 -138h-34zM423 480h39c-4 -35 -12 -217 -12 -361c0 -59 11 -89 50 -91l-6 -38c-6 -1 -13 -1 -17 -1c-34 0 -68 28 -68 110h-3c-30 -57 -86 -110 -171 -110c-116 0 -194 97 -194 242c0 154 99 260 212 260c78 0 134 -43 159 -109h4c1 46 4 72 7 98zM89 229
c0 -101 53 -200 156 -200c72 0 136 69 155 141c6 26 6 48 6 80c0 22 0 40 -4 60c-14 70 -71 141 -149 141c-95 0 -164 -91 -164 -222z" />
    <glyph glyph-name="epsilontonos" unicode="&#x3ad;" horiz-adv-x="422" 
d="M263 678h60l-85 -138h-33zM170 257v4c-70 12 -102 55 -102 103c0 62 62 127 180 127c57 0 106 -12 137 -37l-14 -35c-18 14 -74 33 -125 33c-77 0 -130 -34 -130 -88c0 -60 69 -86 147 -86h66v-39h-69c-98 0 -170 -32 -170 -103c0 -69 68 -107 151 -107
c59 0 123 22 149 40l13 -36c-27 -21 -96 -44 -167 -44c-92 0 -194 38 -194 145c0 59 48 112 128 123z" />
    <glyph glyph-name="etatonos" unicode="&#x3ae;" horiz-adv-x="536" 
d="M309 678h61l-85 -138h-34zM125 393h2c26 54 87 98 165 98c46 0 168 -23 168 -203v-301c0 -54 1 -143 11 -185h-46c-10 34 -13 117 -13 179v303c0 87 -34 166 -133 166c-67 0 -125 -48 -144 -110c-3 -12 -6 -28 -6 -43v-297h-48v365c0 41 -3 85 -13 115h44
c9 -20 13 -53 13 -87z" />
    <glyph glyph-name="iotatonos" unicode="&#x3af;" horiz-adv-x="209" 
d="M135 678h61l-85 -138h-34zM129 480v-384c0 -48 7 -69 48 -67l-4 -37c-7 -2 -15 -3 -24 -3c-34 0 -68 18 -68 101v390h48z" />
    <glyph glyph-name="iotadieresis" unicode="&#x3ca;" horiz-adv-x="209" 
d="M22 563h-2c-22 0 -36 19 -36 39s17 39 38 39s37 -18 37 -39c0 -20 -14 -39 -37 -39zM193 563h-2c-22 0 -36 19 -36 39s17 39 38 39s37 -18 37 -39c0 -20 -14 -39 -37 -39zM129 480v-384c0 -48 7 -69 48 -67l-4 -37c-7 -2 -15 -3 -24 -3c-34 0 -68 18 -68 101v390h48z" />
    <glyph glyph-name="omicrontonos" unicode="&#x3cc;" horiz-adv-x="532" 
d="M293 678h61l-85 -138h-34zM261 -11c-124 0 -220 97 -220 247c0 164 108 255 227 255c133 0 223 -100 223 -246c0 -179 -123 -256 -230 -256zM264 29c100 0 179 90 179 213c0 88 -49 209 -176 209c-123 0 -178 -109 -178 -212c0 -120 77 -210 175 -210z" />
    <glyph glyph-name="upsilontonos" unicode="&#x3cd;" horiz-adv-x="503" 
d="M275 678h61l-85 -138h-34zM371 480h46c16 -30 36 -111 36 -189c0 -137 -38 -302 -204 -302c-97 0 -174 60 -174 186v142c0 92 -2 139 -10 163h45c7 -9 13 -36 13 -87v-205c0 -117 70 -157 130 -157c96 0 152 88 152 252c0 93 -22 174 -34 197z" />
    <glyph glyph-name="upsilondieresis" unicode="&#x3cb;" horiz-adv-x="503" 
d="M163 563h-2c-22 0 -36 19 -36 39s17 39 38 39s37 -18 37 -39c0 -20 -14 -39 -37 -39zM334 563h-2c-22 0 -36 19 -36 39s17 39 38 39s37 -18 37 -39c0 -20 -14 -39 -37 -39zM372 480h45c16 -30 36 -111 36 -189c0 -137 -38 -302 -204 -302c-97 0 -174 60 -174 186v142
c0 92 -2 139 -10 163h45c7 -9 13 -36 13 -87v-205c0 -117 70 -157 130 -157c96 0 152 88 152 252c0 93 -22 174 -33 197z" />
    <glyph glyph-name="omegatonos" unicode="&#x3ce;" horiz-adv-x="670" 
d="M361 678h61l-85 -138h-34zM359 356l-2 -198c0 -73 46 -129 104 -129c57 0 120 72 120 222c0 103 -39 195 -86 236v2h49c46 -37 85 -124 85 -238c0 -184 -91 -262 -169 -262c-62 0 -105 35 -124 90h-3c-22 -57 -68 -90 -128 -90c-73 0 -164 66 -164 256
c0 107 42 204 86 244h48v-2c-47 -45 -86 -133 -86 -244c0 -158 71 -214 124 -214c55 0 101 57 101 128l-2 199h47z" />
    <glyph glyph-name="iotadieresistonos" unicode="&#x390;" horiz-adv-x="209" 
d="M128 480v-384c0 -48 7 -69 49 -67l-4 -37c-8 -2 -16 -3 -24 -3c-35 0 -68 18 -68 101v390h47zM104 682h53l-46 -146h-28zM7 565c-21 0 -35 17 -35 37s16 37 37 37c19 0 34 -16 34 -37c0 -20 -13 -37 -36 -37zM217 565c-20 0 -34 17 -34 37s16 37 36 37s35 -16 35 -37
c0 -20 -13 -37 -37 -37z" />
    <glyph glyph-name="upsilondieresistonos" unicode="&#x3b0;" horiz-adv-x="503" 
d="M371 480h46c16 -30 36 -111 36 -189c0 -137 -38 -302 -204 -302c-97 0 -174 60 -174 186v142c0 92 -2 139 -10 163h45c7 -9 13 -36 13 -87v-205c0 -117 70 -157 130 -157c96 0 152 88 152 252c0 93 -22 174 -34 197zM244 682h52l-45 -146h-28zM147 565
c-21 0 -35 17 -35 37s16 37 37 37c19 0 34 -17 34 -37s-13 -37 -36 -37zM356 565c-20 0 -34 17 -34 37s16 37 36 37s35 -17 35 -37s-13 -37 -37 -37z" />
    <glyph glyph-name="uni037E" unicode="&#x37e;" horiz-adv-x="180" 
d="M72 -121l-38 -5c14 42 37 150 42 212l62 5c-13 -70 -52 -184 -66 -212zM101 345c-24 0 -41 22 -41 47c0 28 18 48 43 48s42 -20 42 -48c0 -25 -17 -47 -44 -47z" />
    <glyph glyph-name="anoteleia" unicode="&#x387;" horiz-adv-x="180" 
d="M88 275c-24 0 -42 22 -41 47c0 28 18 48 43 48s42 -20 42 -48c0 -25 -17 -47 -44 -47z" />
    <glyph glyph-name="tonos" unicode="&#x384;" 
d="M141 689h61l-85 -138h-34z" />
    <glyph glyph-name="dieresistonos" unicode="&#x385;" horiz-adv-x="290" 
d="M136 698h53l-46 -146h-28zM39 579c-22 0 -36 18 -36 39c0 20 17 38 38 38c20 0 36 -17 36 -38s-14 -39 -38 -39zM248 579c-22 0 -36 18 -36 39c0 20 17 38 37 38c21 0 37 -17 37 -38s-14 -39 -38 -39z" />
    <glyph glyph-name="dieresis_acutecomb" unicode="&#xf6d7;" horiz-adv-x="301" 
d="M40 581c-21 0 -35 19 -35 39s17 39 38 39s37 -18 37 -39c0 -23 -16 -39 -40 -39zM249 581c-21 0 -35 19 -35 39s17 39 38 39s37 -18 37 -39c0 -23 -15 -39 -40 -39zM169 696h69l-122 -138h-36z" />
    <glyph glyph-name="dieresis_gravecomb" unicode="&#xf6d8;" horiz-adv-x="301" 
d="M46 581c-21 0 -35 19 -35 39s17 39 38 39s37 -18 37 -39c0 -23 -16 -39 -40 -39zM246 581c-21 0 -35 19 -35 39s17 39 38 39s37 -18 37 -39c0 -23 -15 -39 -40 -39zM61 696h69l88 -138h-36z" />
    <glyph glyph-name="space_uni030F" unicode="&#xf6d6;" 
d="M16 677h73l91 -137h-38zM150 677h73l91 -137h-38z" />
    <glyph glyph-name="dieresis_acutecomb.cap" unicode="&#xf6cc;" horiz-adv-x="301" 
d="M37 726c-21 0 -35 18 -35 40c0 21 16 40 37 40c22 0 37 -18 37 -40c0 -24 -15 -40 -39 -40zM261 726c-21 0 -35 18 -35 40c0 21 16 40 37 40c22 0 37 -18 37 -40c0 -24 -15 -40 -39 -40zM158 823h74l-116 -113h-41z" />
    <glyph glyph-name="dieresis_gravecomb.cap" unicode="&#xf6cd;" horiz-adv-x="301" 
d="M37 726c-21 0 -35 18 -35 40c0 21 16 40 37 40c22 0 37 -18 37 -40c0 -24 -15 -40 -39 -40zM261 726c-21 0 -35 18 -35 40c0 21 16 40 37 40c22 0 37 -18 37 -40c0 -24 -15 -40 -39 -40zM68 823h74l83 -113h-40z" />
    <glyph glyph-name="space_uni030F.cap" unicode="&#xf6d3;" 
d="M-15 823h73l98 -113h-41zM130 823h74l97 -113h-40z" />
    <glyph glyph-name="o.superior" horiz-adv-x="337" 
d="M170 591c93 0 153 -69 153 -164c-2 -116 -83 -166 -155 -166c-86 0 -153 64 -153 162c0 106 78 168 155 168zM167 556c-74 0 -110 -69 -110 -132c0 -76 55 -128 111 -128c63 0 112 51 112 130c0 55 -31 130 -113 130z" />
    <glyph glyph-name="uni0401" unicode="&#x401;" horiz-adv-x="466" 
d="M398 375v-40h-269v-295h301v-40h-349v674h333v-40h-285v-259h269zM158 726c-22 0 -36 18 -36 40c0 21 16 40 37 40c22 0 37 -18 37 -40s-13 -40 -38 -40zM330 726c-22 0 -36 18 -36 40c0 21 16 40 37 40c22 0 37 -18 37 -40s-13 -40 -38 -40z" />
    <glyph glyph-name="uni0402" unicode="&#x402;" horiz-adv-x="630" 
d="M-11 674h492v-40h-250v-234h2c36 24 90 48 146 48c72 0 124 -31 161 -85s48 -121 48 -182c0 -89 -25 -169 -63 -221c-42 -57 -100 -82 -150 -91l-10 33c43 12 91 37 123 83c33 45 51 111 51 189c0 63 -11 118 -38 160c-28 45 -70 73 -131 73c-53 0 -101 -20 -139 -49
v-358h-48v634h-194v40z" />
    <glyph glyph-name="uni0403" unicode="&#x403;" horiz-adv-x="399" 
d="M81 674h328v-40h-280v-634h-48v674zM289 823h73l-131 -113h-40z" />
    <glyph glyph-name="uni0404" unicode="&#x404;" horiz-adv-x="565" 
d="M529 654l-15 -38c-33 17 -81 28 -132 28c-172 0 -281 -122 -294 -278h370v-39h-370c1 -161 110 -297 284 -297c58 0 106 11 149 30l10 -37c-34 -19 -90 -34 -171 -34c-172 0 -323 125 -323 347c0 196 140 349 344 349c85 0 126 -19 148 -31z" />
    <glyph glyph-name="uni0405" unicode="&#x405;" horiz-adv-x="464" 
d="M42 35l18 39c38 -26 91 -44 147 -44c101 0 163 57 163 140c0 76 -39 120 -137 158c-108 38 -173 94 -173 186c0 99 81 171 196 171c63 0 111 -16 134 -32l-18 -40c-18 13 -61 32 -119 32c-109 0 -146 -70 -146 -123c0 -75 43 -113 140 -151c111 -45 170 -95 170 -196
c0 -98 -70 -186 -214 -186c-58 0 -126 19 -161 46z" />
    <glyph glyph-name="uni0406" unicode="&#x406;" horiz-adv-x="211" 
d="M81 674h48v-674h-48v674z" />
    <glyph glyph-name="uni0407" unicode="&#x407;" horiz-adv-x="211" 
d="M81 674h48v-674h-48v674zM19 726c-22 0 -36 18 -36 40c0 21 16 40 37 40c22 0 37 -18 37 -40s-13 -40 -38 -40zM191 726c-22 0 -36 18 -36 40c0 21 16 40 37 40c22 0 37 -18 37 -40s-13 -40 -38 -40z" />
    <glyph glyph-name="uni0408" unicode="&#x408;" horiz-adv-x="345" 
d="M223 219v455h48v-466c0 -172 -86 -219 -182 -219c-31 0 -65 8 -82 16l10 38c17 -7 41 -13 71 -13c86 0 135 39 135 189z" />
    <glyph glyph-name="uni0409" unicode="&#x409;" horiz-adv-x="842" 
d="M125 674h336v-263c20 3 64 5 84 5c132 0 255 -56 255 -205c0 -62 -20 -107 -51 -142c-50 -53 -131 -74 -217 -74c-52 0 -92 4 -119 6v633h-243v-232c0 -130 2 -310 -87 -377c-19 -14 -55 -31 -81 -31l-9 37c24 5 54 22 69 36c61 59 63 218 63 330v277zM461 372v-333
c22 -4 47 -5 82 -5c112 0 208 55 208 175c0 123 -101 167 -211 167c-21 0 -54 -2 -79 -4z" />
    <glyph glyph-name="uni040A" unicode="&#x40a;" horiz-adv-x="863" 
d="M81 674h48v-281h304v281h48v-276c20 3 60 5 99 5c125 0 240 -55 240 -194c0 -63 -20 -108 -51 -141c-50 -54 -125 -73 -215 -73c-54 0 -94 4 -121 6v352h-304v-353h-48v674zM481 359v-320c22 -3 47 -5 82 -5c110 0 208 50 208 172c0 115 -98 157 -204 157
c-36 0 -65 -2 -86 -4z" />
    <glyph glyph-name="uni040B" unicode="&#x40b;" horiz-adv-x="641" 
d="M-10 674h480v-40h-242v-229h2c40 24 100 50 158 50c56 0 93 -17 121 -43c37 -36 55 -88 55 -155v-257h-48v250c0 59 -11 97 -38 126c-24 26 -55 39 -99 39c-49 0 -113 -24 -151 -51v-364h-48v634h-190v40z" />
    <glyph glyph-name="uni040C" unicode="&#x40c;" horiz-adv-x="503" 
d="M81 674h48v-311h35l258 311h55l-267 -315c127 -12 172 -84 211 -181c26 -67 44 -123 72 -178h-51c-25 47 -46 111 -67 166c-36 97 -85 159 -219 159h-27v-325h-48v674zM323 818h73l-131 -113h-40z" />
    <glyph glyph-name="uni040E" unicode="&#x40e;" horiz-adv-x="480" 
d="M2 674h54l156 -318c16 -35 33 -73 49 -112h2c14 37 28 74 44 115l126 315h50l-151 -358c-34 -81 -76 -185 -122 -248c-42 -54 -88 -79 -135 -79c-16 0 -28 1 -33 3l6 40c5 -1 12 -2 22 -2c83 1 130 90 157 148c9 17 7 28 -3 47zM124 808h45c6 -26 15 -62 71 -62
s66 34 70 62h45c-4 -54 -35 -98 -117 -98c-79 0 -111 44 -114 98z" />
    <glyph glyph-name="uni040F" unicode="&#x40f;" horiz-adv-x="612" 
d="M81 674h48v-634h355v634h48v-674h-199l-7 -169h-40l-7 169h-198v674z" />
    <glyph glyph-name="uni0410" unicode="&#x410;" horiz-adv-x="585" 
d="M428 236h-266l-83 -236h-49l244 674h46l242 -674h-49zM177 276h237l-82 225c-17 47 -26 81 -35 119h-3c-9 -39 -20 -74 -35 -117z" />
    <glyph glyph-name="uni0411" unicode="&#x411;" horiz-adv-x="511" 
d="M81 674h336v-41h-288v-222c20 3 64 5 84 5c60 0 119 -12 163 -39c55 -31 92 -85 92 -166c0 -62 -20 -108 -51 -142c-50 -53 -131 -74 -217 -74c-52 0 -92 4 -119 6v673zM129 372v-333c22 -3 47 -5 82 -5c64 0 130 21 168 62c25 28 40 65 40 113c0 63 -26 104 -67 131
c-39 25 -89 36 -144 36c-21 0 -54 -2 -79 -4z" />
    <glyph glyph-name="uni0412" unicode="&#x412;" horiz-adv-x="505" 
d="M81 1v663c38 9 86 15 136 15c84 0 139 -18 176 -56c28 -27 42 -63 42 -110c0 -69 -49 -127 -116 -150v-3c57 -13 143 -62 143 -172c0 -55 -20 -97 -50 -129c-45 -45 -118 -64 -214 -64c-51 0 -90 4 -117 6zM129 632v-254h98c98 0 159 58 159 132c0 95 -72 129 -172 129
c-44 0 -70 -3 -85 -7zM129 339v-299c20 -4 47 -5 83 -5c103 0 200 37 200 152c0 106 -91 152 -198 152h-85z" />
    <glyph glyph-name="uni0413" unicode="&#x413;" horiz-adv-x="399" 
d="M81 674h328v-40h-280v-634h-48v674z" />
    <glyph glyph-name="uni0414" unicode="&#x414;" horiz-adv-x="594" 
d="M160 674h338v-634h54l-5 -197h-39l-5 157h-444l-5 -157h-39l-5 197h47c24 45 51 94 68 148c26 84 35 184 35 320v166zM205 634v-150c0 -127 -10 -226 -37 -308c-16 -51 -40 -99 -61 -136h343v594h-245z" />
    <glyph glyph-name="uni0415" unicode="&#x415;" horiz-adv-x="466" 
d="M398 375v-40h-269v-295h301v-40h-349v674h333v-40h-285v-259h269z" />
    <glyph glyph-name="uni0416" unicode="&#x416;" horiz-adv-x="756" 
d="M31 674h54l235 -312h35v312h46v-312h36l233 312h55l-245 -316c115 -11 157 -77 194 -178c22 -60 38 -122 65 -180h-49c-25 45 -41 115 -60 164c-38 103 -72 161 -196 161h-33v-325h-46v325h-35c-124 0 -158 -58 -197 -161c-18 -49 -36 -119 -58 -164h-49
c28 58 43 120 65 180c37 101 80 167 194 178z" />
    <glyph glyph-name="uni0417" unicode="&#x417;" horiz-adv-x="460" 
d="M72 600l-16 36c46 32 97 50 158 50c99 0 176 -53 176 -160c0 -82 -63 -151 -142 -169v-2c101 -9 168 -73 168 -174c0 -133 -103 -192 -223 -192c-56 0 -112 12 -161 42l18 37c40 -23 93 -40 144 -40c114 0 173 67 173 152c0 117 -109 154 -209 154h-25v38h26
c101 0 182 70 182 149c0 83 -56 126 -134 126c-51 0 -99 -22 -135 -47z" />
    <glyph glyph-name="uni0418" unicode="&#x418;" horiz-adv-x="638" 
d="M82 674h46v-336c0 -106 -1 -183 -8 -273l2 -2c33 66 73 128 128 212l262 399h44v-674h-46v341c0 112 1 185 6 268l-2 1c-35 -70 -82 -140 -132 -218l-257 -392h-43v674z" />
    <glyph glyph-name="uni0419" unicode="&#x419;" horiz-adv-x="638" 
d="M82 674h46v-336c0 -106 -1 -183 -8 -273l2 -2c33 66 73 128 128 212l262 399h44v-674h-46v341c0 112 1 185 6 268l-2 1c-35 -70 -82 -140 -132 -218l-257 -392h-43v674zM204 807h45c6 -26 15 -62 71 -62s66 34 70 62h45c-4 -54 -35 -98 -117 -98c-79 0 -111 44 -114 98z
" />
    <glyph glyph-name="uni041A" unicode="&#x41a;" horiz-adv-x="503" 
d="M81 674h48v-311h35l258 311h55l-267 -315c127 -12 172 -84 211 -181c26 -67 44 -123 72 -178h-51c-25 47 -46 111 -67 166c-36 97 -85 159 -219 159h-27v-325h-48v674z" />
    <glyph glyph-name="uni041B" unicode="&#x41b;" horiz-adv-x="564" 
d="M122 674h360v-674h-48v634h-265v-231c0 -131 2 -311 -87 -378c-19 -14 -55 -31 -85 -31l-6 38c24 4 52 21 67 35c62 59 64 219 64 330v277z" />
    <glyph glyph-name="uni041C" unicode="&#x41c;" horiz-adv-x="778" 
d="M670 0l-20 320c-6 101 -14 225 -14 298h-2c-25 -73 -52 -151 -91 -251l-142 -367h-33l-133 358c-38 105 -67 186 -87 260h-2c-2 -79 -7 -196 -15 -308l-21 -310h-47l49 674h55l145 -388c32 -86 55 -154 74 -219h3c17 62 41 128 75 218l151 389h57l45 -674h-47z" />
    <glyph glyph-name="uni041D" unicode="&#x41d;" horiz-adv-x="630" 
d="M81 674h48v-297h372v297h48v-674h-48v337h-372v-337h-48v674z" />
    <glyph glyph-name="uni041E" unicode="&#x41e;" horiz-adv-x="671" 
d="M340 686c170 0 294 -133 294 -342c0 -238 -146 -355 -302 -355c-166 0 -295 131 -295 342c0 221 134 355 303 355zM337 646c-171 0 -250 -156 -250 -314c0 -152 88 -303 248 -303s249 145 249 312c0 143 -78 305 -247 305z" />
    <glyph glyph-name="uni041F" unicode="&#x41f;" horiz-adv-x="616" 
d="M81 674h453v-674h-48v634h-357v-634h-48v674z" />
    <glyph glyph-name="uni0420" unicode="&#x420;" horiz-adv-x="502" 
d="M81 0v666c39 7 88 13 145 13c80 0 141 -21 178 -57c33 -31 52 -76 52 -132c0 -58 -16 -101 -47 -135c-43 -49 -115 -75 -198 -75c-31 0 -58 1 -82 8v-288h-48zM129 631v-301c23 -8 53 -10 86 -10c121 0 193 58 193 165c0 106 -77 154 -184 154c-44 0 -77 -4 -95 -8z" />
    <glyph glyph-name="uni0421" unicode="&#x421;" horiz-adv-x="570" 
d="M524 62l14 -38c-34 -17 -99 -34 -182 -34c-163 0 -319 104 -319 343c0 200 129 352 342 352c86 0 136 -19 156 -30l-15 -40c-34 17 -83 29 -140 29c-182 0 -293 -118 -293 -312c0 -183 104 -301 285 -301c57 0 113 12 152 31z" />
    <glyph glyph-name="uni0422" unicode="&#x422;" horiz-adv-x="465" 
d="M209 0v634h-220v40h488v-40h-220v-634h-48z" />
    <glyph glyph-name="uni0423" unicode="&#x423;" horiz-adv-x="480" 
d="M2 674h54l156 -318c16 -35 33 -73 49 -112h2c14 37 28 74 44 115l126 315h50l-151 -358c-34 -81 -76 -185 -122 -248c-42 -54 -88 -79 -135 -79c-16 0 -28 1 -33 3l6 40c5 -1 12 -2 22 -2c83 1 130 90 157 148c9 17 7 28 -3 47z" />
    <glyph glyph-name="uni0424" unicode="&#x424;" horiz-adv-x="686" 
d="M320 700h48v-62c140 -3 280 -89 280 -302c0 -216 -142 -293 -282 -299v-64h-48v64c-137 8 -280 79 -280 296c0 224 152 300 282 305v62zM319 73v529c-105 -3 -231 -70 -231 -266c0 -177 108 -252 231 -263zM367 602v-529c120 7 231 83 231 263c0 194 -114 262 -231 266z
" />
    <glyph glyph-name="uni0425" unicode="&#x425;" horiz-adv-x="546" 
d="M515 0h-55l-102 166c-42 63 -66 101 -89 140h-2c-22 -39 -43 -76 -85 -141l-97 -165h-55l214 341l-205 333h54l109 -180c28 -45 49 -80 69 -116h2c21 39 42 70 71 116l113 180h56l-215 -328z" />
    <glyph glyph-name="uni0426" unicode="&#x426;" horiz-adv-x="626" 
d="M81 674h48v-634h354v634h48v-634h53l-5 -197h-40l-4 157h-454v674z" />
    <glyph glyph-name="uni0427" unicode="&#x427;" horiz-adv-x="570" 
d="M77 674h48v-226c0 -102 52 -163 161 -163c56 0 115 20 155 47v342h48v-676h-48v293h-2c-46 -30 -107 -47 -168 -47c-70 0 -194 22 -194 199v231z" />
    <glyph glyph-name="uni0428" unicode="&#x428;" horiz-adv-x="807" 
d="M82 674h47v-634h251v634h47v-634h251v634h47v-674h-643v674z" />
    <glyph glyph-name="uni0429" unicode="&#x429;" horiz-adv-x="821" 
d="M82 674h47v-634h251v634h47v-634h251v634h47v-634h54l-5 -197h-40l-4 157h-648v674z" />
    <glyph glyph-name="uni042A" unicode="&#x42a;" horiz-adv-x="585" 
d="M-11 674h223v-263c20 3 56 5 80 5c128 0 251 -56 251 -205c0 -62 -20 -108 -51 -142c-50 -53 -130 -74 -213 -74c-48 0 -88 4 -115 6v633h-175v40zM212 372v-333c22 -3 47 -5 78 -5c114 0 204 55 204 175c0 123 -101 167 -203 167c-25 0 -54 -2 -79 -4z" />
    <glyph glyph-name="uni042B" unicode="&#x42b;" horiz-adv-x="681" 
d="M81 674h48v-263c20 3 64 5 84 5c138 0 255 -56 255 -205c0 -61 -20 -107 -51 -141c-50 -54 -131 -75 -217 -75c-52 0 -92 4 -119 6v673zM129 372v-333c22 -3 47 -5 81 -5c114 0 209 55 209 175c0 123 -101 167 -211 167c-39 0 -71 -3 -79 -4zM552 674h48v-674h-48v674z
" />
    <glyph glyph-name="uni042C" unicode="&#x42c;" horiz-adv-x="510" 
d="M81 674h48v-263c20 3 64 5 84 5c132 0 255 -56 255 -205c0 -61 -20 -107 -51 -141c-50 -54 -131 -75 -217 -75c-52 0 -92 4 -119 6v673zM129 372v-333c22 -3 47 -5 81 -5c112 0 209 53 209 175c0 123 -101 167 -211 167c-22 0 -55 -2 -79 -4z" />
    <glyph glyph-name="uni042D" unicode="&#x42d;" horiz-adv-x="556" 
d="M138 327v40h330c-12 156 -104 277 -259 277c-55 0 -100 -15 -149 -37l-16 39c53 23 105 39 166 39c196 0 308 -148 308 -348c0 -217 -140 -348 -309 -348c-64 0 -121 12 -177 36l14 41c43 -21 101 -36 152 -36c169 0 269 131 271 297h-331z" />
    <glyph glyph-name="uni042E" unicode="&#x42e;" horiz-adv-x="834" 
d="M81 674h48v-307h112c12 203 122 319 281 319c166 0 274 -133 274 -342c0 -241 -134 -355 -281 -355c-160 0 -273 125 -275 338h-111v-327h-48v674zM517 29c148 0 229 145 229 312c0 142 -69 305 -227 305c-159 0 -231 -156 -231 -314c0 -152 81 -303 229 -303z" />
    <glyph glyph-name="uni042F" unicode="&#x42f;" horiz-adv-x="508" 
d="M70 0h-52c9 16 17 33 24 52c30 78 48 180 106 239c16 16 37 29 58 34v2c-90 14 -154 80 -154 167c0 57 21 103 57 133c36 31 92 52 176 52c46 0 100 -5 142 -14v-665h-48v309h-82c-49 0 -84 -9 -111 -38c-49 -51 -70 -157 -96 -226c-7 -16 -12 -30 -20 -45zM379 349v281
c-17 5 -51 10 -96 10c-97 0 -183 -36 -183 -143c0 -93 81 -148 193 -149c35 0 67 0 86 1z" />
    <glyph glyph-name="uni0430" unicode="&#x430;" horiz-adv-x="454" 
d="M380 302v-188c0 -38 1 -77 7 -114h-44l-7 69h-2c-24 -37 -77 -80 -154 -80c-97 0 -141 68 -141 132c0 111 97 178 293 176v13c0 47 -9 142 -123 141c-42 0 -86 -11 -121 -36l-15 35c44 29 98 41 141 41c139 0 166 -104 166 -189zM332 154v103c-105 3 -243 -13 -243 -128
c0 -69 46 -100 96 -100c80 0 126 49 142 96c4 10 5 21 5 29z" />
    <glyph glyph-name="uni0431" unicode="&#x431;" horiz-adv-x="497" 
d="M412 721l-1 -44c-22 -9 -62 -19 -92 -25c-83 -15 -144 -44 -183 -107c-32 -51 -48 -125 -53 -184h2c32 81 105 119 172 119c111 0 199 -77 199 -236c0 -157 -66 -255 -206 -255c-169 0 -208 179 -208 324c0 99 17 183 57 251c45 77 112 108 210 128c35 8 71 16 103 29z
M408 238c0 85 -35 202 -157 202c-63 0 -108 -34 -132 -82c-16 -32 -23 -69 -23 -105c0 -91 48 -225 157 -225c114 0 155 108 155 210z" />
    <glyph glyph-name="uni0432" unicode="&#x432;" horiz-adv-x="469" 
d="M77 0v475c34 6 83 10 128 10c80 0 199 -16 199 -119c0 -58 -44 -98 -102 -111v-2c69 -9 124 -48 124 -121c0 -119 -142 -137 -234 -137c-45 0 -91 3 -115 5zM122 439v-169h81c68 0 152 22 152 90c0 59 -51 84 -155 84c-36 0 -56 -3 -78 -5zM121 231v-192
c30 -2 52 -3 82 -3c64 0 174 11 174 97c0 85 -89 98 -179 98h-77z" />
    <glyph glyph-name="uni0433" unicode="&#x433;" horiz-adv-x="365" 
d="M77 480h271v-41h-223v-439h-48v480z" />
    <glyph glyph-name="uni0434" unicode="&#x434;" horiz-adv-x="494" 
d="M125 480h282v-440h47l-4 -190h-40l-3 150h-353l-3 -150h-40l-4 190h39c20 32 37 64 48 97c22 67 31 137 31 214v129zM168 440v-93c0 -79 -9 -151 -29 -213c-11 -36 -26 -65 -41 -94h261v400h-191z" />
    <glyph glyph-name="uni0435" unicode="&#x435;" horiz-adv-x="485" 
d="M442 245h-354c0 -153 83 -214 183 -214c70 0 106 14 133 27l12 -37c-18 -10 -67 -31 -151 -31c-138 0 -224 100 -224 241c0 160 92 260 216 260c157 0 187 -148 187 -217c0 -13 0 -20 -2 -29zM90 283h304c1 67 -27 168 -143 168c-106 0 -152 -94 -161 -168z" />
    <glyph glyph-name="uni0436" unicode="&#x436;" horiz-adv-x="625" 
d="M22 480h58l192 -219h18v219h45v-219h18l191 219h59l-204 -224c84 -7 131 -44 164 -131c16 -42 31 -91 50 -125h-48c-18 32 -32 73 -46 111c-36 95 -90 115 -167 115h-17v-226h-45v226h-17c-83 0 -133 -23 -169 -117c-15 -37 -29 -76 -47 -109h-46c20 35 35 84 50 123
c35 88 81 126 165 133z" />
    <glyph glyph-name="uni0437" unicode="&#x437;" horiz-adv-x="397" 
d="M115 232l1 39h23c81 0 143 42 143 97c0 53 -45 84 -101 84c-37 0 -79 -13 -112 -35l-17 34c42 27 88 40 136 40c66 0 145 -34 145 -124c0 -58 -55 -101 -112 -112v-1c79 -6 135 -55 135 -125c0 -95 -85 -140 -188 -140c-50 0 -100 14 -137 34l18 38
c36 -20 78 -33 120 -33c78 0 134 42 134 102c0 82 -85 102 -162 102h-26z" />
    <glyph glyph-name="uni0438" unicode="&#x438;" horiz-adv-x="528" 
d="M77 480h47v-237c0 -75 0 -119 -4 -190l2 -1c34 60 52 92 92 153l185 275h52v-480h-47v240c0 80 1 127 5 189h-2c-39 -68 -65 -110 -99 -162c-55 -79 -118 -176 -180 -267h-51v480z" />
    <glyph glyph-name="uni0439" unicode="&#x439;" horiz-adv-x="528" 
d="M77 480h47v-237c0 -75 0 -119 -4 -190l2 -1c34 60 52 92 92 153l185 275h52v-480h-47v240c0 80 1 127 5 189h-2c-39 -68 -65 -110 -99 -162c-55 -79 -118 -176 -180 -267h-51v480zM142 674h44c4 -42 28 -79 76 -79c51 0 73 36 79 79h43c-4 -74 -53 -113 -124 -113
c-85 0 -114 56 -118 113z" />
    <glyph glyph-name="uni043A" unicode="&#x43a;" horiz-adv-x="448" 
d="M81 480h48v-219h23l218 219h63l-230 -223c91 -8 145 -57 188 -155c11 -26 27 -67 47 -102h-50c-13 21 -32 61 -46 93c-40 93 -93 132 -195 132h-18v-225h-48v480z" />
    <glyph glyph-name="uni043B" unicode="&#x43b;" horiz-adv-x="483" 
d="M108 480h298v-480h-48v440h-202v-144c0 -146 -13 -241 -82 -280c-19 -12 -36 -20 -67 -20l-4 39c14 2 31 8 44 16c55 35 61 117 61 241v188z" />
    <glyph glyph-name="uni043C" unicode="&#x43c;" horiz-adv-x="590" 
d="M41 0l38 480h55l109 -279c15 -40 40 -105 51 -139h1c13 38 47 129 69 185l93 233h57l36 -480h-48l-14 253c-3 58 -7 113 -10 174h-3c-9 -31 -29 -83 -58 -155l-109 -272h-35l-103 268c-17 44 -41 115 -54 159h-4c-1 -55 -5 -116 -8 -176l-15 -251h-48z" />
    <glyph glyph-name="uni043D" unicode="&#x43d;" horiz-adv-x="525" 
d="M77 480h48v-206h276v206h48v-480h-48v234h-276v-234h-48v480z" />
    <glyph glyph-name="uni043E" unicode="&#x43e;" horiz-adv-x="532" 
d="M268 491c133 0 223 -100 223 -246c0 -179 -123 -256 -230 -256c-124 0 -220 97 -220 247c0 164 108 255 227 255zM267 451c-123 0 -178 -109 -178 -212c0 -120 77 -210 175 -210c100 0 179 90 179 213c0 88 -49 209 -176 209z" />
    <glyph glyph-name="uni043F" unicode="&#x43f;" horiz-adv-x="521" 
d="M77 480h367v-480h-48v440h-271v-440h-48v480z" />
    <glyph glyph-name="uni0440" unicode="&#x440;" horiz-adv-x="552" 
d="M80 -198v525c0 60 -1 107 -4 153h46l3 -91h2c35 63 94 102 177 102c124 0 207 -102 207 -243c0 -171 -102 -259 -218 -259c-69 0 -130 31 -163 89h-2v-276h-48zM128 283v-94c0 -13 1 -26 4 -38c20 -74 84 -122 158 -122c110 0 173 89 173 217c0 108 -60 205 -169 205
c-70 0 -138 -48 -159 -127c-3 -13 -7 -28 -7 -41z" />
    <glyph glyph-name="uni0441" unicode="&#x441;" horiz-adv-x="446" 
d="M399 59l13 -38c-21 -10 -71 -31 -141 -31c-138 0 -230 101 -230 245c0 152 104 256 247 256c59 0 108 -17 126 -30l-17 -39c-23 13 -60 28 -113 28c-129 0 -195 -99 -195 -211c0 -126 79 -208 190 -208c57 0 94 16 120 28z" />
    <glyph glyph-name="uni0442" unicode="&#x442;" horiz-adv-x="380" 
d="M10 480h360v-40h-156v-440h-48v440h-156v40z" />
    <glyph glyph-name="uni0443" unicode="&#x443;" horiz-adv-x="440" 
d="M11 480h51l126 -314c13 -34 26 -73 35 -103h2c10 29 22 67 37 106l117 311h51l-144 -358c-58 -149 -99 -238 -162 -293c-38 -32 -72 -46 -84 -50l-15 40c24 9 56 26 84 53c24 24 56 64 80 121c4 10 6 16 6 21c0 4 -2 11 -6 21z" />
    <glyph glyph-name="uni0444" unicode="&#x444;" horiz-adv-x="593" 
d="M275 710h44v-219c142 -8 233 -100 233 -247c0 -159 -98 -244 -233 -253v-189h-44v188c-142 8 -234 99 -234 247c0 160 99 244 234 253v220zM275 27v427c-112 -10 -186 -101 -186 -215c0 -113 76 -202 186 -212zM319 454v-427c111 10 185 103 185 215
c0 115 -74 201 -185 212z" />
    <glyph glyph-name="uni0445" unicode="&#x445;" horiz-adv-x="429" 
d="M21 480h54l82 -117c20 -29 37 -53 55 -82h2c18 29 37 55 56 82l82 117h53l-168 -234l174 -246h-55l-85 122c-22 30 -40 59 -60 90h-2c-18 -31 -37 -58 -60 -90l-84 -122h-54l176 245z" />
    <glyph glyph-name="uni0446" unicode="&#x446;" horiz-adv-x="526" 
d="M77 480h48v-440h266v440h48v-440h47l-4 -190h-40l-3 150h-362v480z" />
    <glyph glyph-name="uni0447" unicode="&#x447;" horiz-adv-x="488" 
d="M71 480h48v-169c0 -65 26 -115 117 -115c46 0 93 16 127 40v244h48v-486h-48v203h-1c-35 -23 -91 -40 -136 -40c-84 0 -155 39 -155 146v177z" />
    <glyph glyph-name="uni0448" unicode="&#x448;" horiz-adv-x="692" 
d="M77 480h48v-440h197v440h48v-440h197v440h48v-480h-538v480z" />
    <glyph glyph-name="uni0449" unicode="&#x449;" horiz-adv-x="702" 
d="M77 480h48v-440h197v440h48v-440h197v440h48v-440h47l-4 -190h-40l-3 150h-538v480z" />
    <glyph glyph-name="uni044A" unicode="&#x44a;" horiz-adv-x="535" 
d="M12 480h193v-174c24 4 56 5 85 5c93 0 206 -36 206 -158c0 -45 -15 -78 -40 -102c-47 -46 -120 -56 -190 -56c-43 0 -81 4 -109 6v439h-145v40zM204 266v-228c20 -3 43 -5 75 -5c86 0 169 28 169 119c0 95 -89 120 -172 120c-24 0 -47 -2 -72 -6z" />
    <glyph glyph-name="uni044B" unicode="&#x44b;" horiz-adv-x="597" 
d="M77 480h48v-175c17 3 46 6 78 6c102 0 203 -42 203 -158c0 -43 -15 -76 -40 -101c-47 -45 -120 -57 -180 -57c-43 0 -81 4 -109 6v479zM124 266v-228c20 -3 43 -5 71 -5c78 0 163 32 163 119c0 92 -82 120 -160 120c-26 0 -53 -2 -74 -6zM471 480h47v-480h-47v480z" />
    <glyph glyph-name="uni044C" unicode="&#x44c;" horiz-adv-x="463" 
d="M77 480h48v-174c21 4 56 5 82 5c105 0 217 -32 217 -160c0 -43 -15 -74 -40 -99c-47 -45 -128 -57 -198 -57c-43 0 -81 4 -109 6v479zM124 266v-229c20 -2 43 -4 75 -4c75 0 177 25 177 119c0 98 -103 120 -180 120c-24 0 -47 -2 -72 -6z" />
    <glyph glyph-name="uni044D" unicode="&#x44d;" horiz-adv-x="451" 
d="M100 227v39h261c-6 98 -63 184 -189 184c-53 0 -94 -17 -119 -30l-14 33c40 24 91 38 140 38c73 0 133 -26 174 -74c38 -44 57 -107 57 -181c0 -131 -84 -246 -242 -246c-51 0 -98 12 -137 33l15 38c24 -11 64 -30 125 -30c114 0 187 79 191 196h-262z" />
    <glyph glyph-name="uni044E" unicode="&#x44e;" horiz-adv-x="664" 
d="M77 480h46v-216h96c10 134 92 227 204 227c119 0 200 -97 200 -246s-84 -256 -205 -256c-115 0 -195 92 -200 235h-95v-224h-46v480zM420 27c107 0 155 118 155 217c0 100 -51 207 -154 207c-99 0 -156 -102 -156 -215c0 -102 53 -209 155 -209z" />
    <glyph glyph-name="uni044F" unicode="&#x44f;" horiz-adv-x="461" 
d="M384 475v-475h-48v215h-86c-39 0 -67 -8 -87 -23c-43 -31 -56 -100 -78 -152c-6 -15 -14 -30 -20 -40h-52c10 16 20 34 29 55c24 53 30 115 81 154c14 10 30 19 51 22v2c-68 8 -129 48 -129 120c0 44 22 76 51 97c37 25 91 35 152 35c46 0 95 -4 136 -10zM336 254v188
c-27 4 -50 6 -86 6c-66 0 -156 -16 -156 -97c0 -74 95 -97 152 -97h90z" />
    <glyph glyph-name="uni0451" unicode="&#x451;" horiz-adv-x="485" 
d="M442 245h-354c0 -153 83 -214 183 -214c70 0 106 14 133 27l12 -37c-18 -10 -67 -31 -151 -31c-138 0 -224 100 -224 241c0 160 92 260 216 260c157 0 187 -148 187 -217c0 -13 0 -20 -2 -29zM90 283h304c1 67 -27 168 -143 168c-106 0 -152 -94 -161 -168zM176 578h-2
c-22 0 -36 19 -36 39s17 39 38 39s37 -18 37 -39c0 -20 -14 -39 -37 -39zM346 578h-2c-22 0 -36 19 -36 39s17 39 38 39s37 -18 37 -39c0 -20 -14 -39 -37 -39z" />
    <glyph glyph-name="uni0452" unicode="&#x452;" horiz-adv-x="539" 
d="M11 614h88v96h48v-96h235v-40h-235v-162h2c39 45 96 79 159 79c57 0 101 -26 132 -72c42 -59 57 -141 57 -220c0 -128 -34 -223 -83 -275c-32 -33 -76 -57 -130 -64l-9 37c45 9 77 24 106 57c40 46 67 123 67 243c0 69 -8 135 -46 194c-22 36 -60 61 -107 61
c-46 0 -94 -29 -130 -74c-12 -16 -18 -36 -18 -63v-315h-48v574h-88v40z" />
    <glyph glyph-name="uni0453" unicode="&#x453;" horiz-adv-x="365" 
d="M77 480h271v-41h-223v-439h-48v480zM257 688h69l-122 -138h-37z" />
    <glyph glyph-name="uni0454" unicode="&#x454;" horiz-adv-x="452" 
d="M421 456l-17 -38c-25 13 -61 32 -117 32c-126 0 -189 -87 -197 -184h270v-39h-271c4 -117 81 -196 192 -196c60 0 100 18 125 29l14 -37c-22 -12 -74 -33 -146 -33c-151 0 -233 114 -233 246c0 147 98 255 250 255c63 0 110 -23 130 -35z" />
    <glyph glyph-name="uni0455" unicode="&#x455;" horiz-adv-x="373" 
d="M44 23l17 40c26 -16 65 -33 108 -33c76 0 112 41 112 91c0 53 -32 81 -101 109c-79 30 -122 73 -122 131c0 69 55 130 148 130c44 0 82 -13 106 -30l-18 -39c-17 12 -48 29 -96 29c-61 0 -93 -39 -93 -83c0 -50 34 -72 99 -99c78 -30 124 -69 124 -142
c0 -82 -64 -137 -162 -137c-46 0 -90 13 -122 33z" />
    <glyph glyph-name="uni0456" unicode="&#x456;" horiz-adv-x="209" 
d="M129 0h-48v480h48v-480zM105 659c22 0 38 -19 38 -42c0 -22 -15 -41 -40 -41c-22 0 -37 19 -37 41s17 42 39 42z" />
    <glyph glyph-name="uni0457" unicode="&#x457;" horiz-adv-x="209" 
d="M129 0h-48v480h48v-480zM21 578h-2c-22 0 -36 19 -36 39s17 39 38 39s37 -18 37 -39c0 -20 -14 -39 -37 -39zM190 578h-2c-22 0 -36 19 -36 39s17 39 38 39s37 -18 37 -39c0 -20 -14 -39 -37 -39z" />
    <glyph glyph-name="uni0458" unicode="&#x458;" horiz-adv-x="214" 
d="M-42 -209l-7 39c42 2 78 15 100 40c25 30 36 68 36 195v415h48v-447c0 -86 -10 -145 -51 -190c-35 -38 -95 -51 -126 -52zM112 659c22 0 37 -20 37 -42c0 -21 -14 -41 -40 -41c-22 0 -37 20 -37 41c0 22 17 42 40 42z" />
    <glyph glyph-name="uni0459" unicode="&#x459;" horiz-adv-x="744" 
d="M116 480h290v-174c21 4 56 5 82 5c105 0 217 -32 217 -158c0 -44 -15 -76 -40 -101c-46 -45 -128 -57 -198 -57c-43 0 -81 4 -109 6v439h-196v-144c0 -147 -20 -242 -89 -282c-17 -10 -35 -18 -66 -18l-3 39c13 2 32 8 45 16c55 35 67 116 67 241v188zM405 266v-228
c20 -3 43 -5 75 -5c75 0 177 25 177 119c0 98 -99 120 -172 120c-32 0 -55 -2 -80 -6z" />
    <glyph glyph-name="uni045A" unicode="&#x45a;" horiz-adv-x="747" 
d="M77 480h48v-188h244v188h49v-180c20 3 56 5 85 5c90 0 205 -35 205 -152c0 -46 -16 -79 -41 -104c-47 -44 -119 -54 -188 -54c-44 0 -82 4 -110 5v251h-244v-251h-48v480zM417 262v-225c20 -2 42 -4 75 -4c73 0 168 24 168 116c0 95 -91 118 -168 118
c-29 0 -51 -2 -75 -5z" />
    <glyph glyph-name="uni045B" unicode="&#x45b;" horiz-adv-x="555" 
d="M11 614h88v96h48v-96h204v-40h-204v-176h2c16 27 37 49 61 65c29 18 62 28 101 28c96 0 167 -68 167 -202v-289h-48v284c0 87 -34 165 -132 165c-70 0 -124 -52 -144 -108c-5 -15 -7 -34 -7 -53v-288h-48v574h-88v40z" />
    <glyph glyph-name="uni045C" unicode="&#x45c;" horiz-adv-x="448" 
d="M81 480h48v-219h23l218 219h63l-230 -223c91 -8 145 -57 188 -155c11 -26 27 -67 47 -102h-50c-13 21 -32 61 -46 93c-40 93 -93 132 -195 132h-18v-225h-48v480zM280 688h70l-122 -138h-37z" />
    <glyph glyph-name="uni045E" unicode="&#x45e;" horiz-adv-x="440" 
d="M98 674h44c4 -42 28 -79 76 -79c51 0 73 36 79 79h43c-4 -74 -53 -113 -124 -113c-85 0 -114 56 -118 113zM11 480h51l126 -314c13 -34 26 -73 35 -103h2c10 29 22 67 37 106l117 311h51l-144 -358c-58 -149 -99 -238 -162 -293c-38 -32 -72 -46 -84 -50l-15 40
c24 9 56 26 84 53c24 24 56 64 80 121c4 10 6 16 6 21c0 4 -2 11 -6 21z" />
    <glyph glyph-name="uni045F" unicode="&#x45f;" horiz-adv-x="515" 
d="M77 480h48v-440h266v440h48v-480h-156l-5 -151h-38l-6 151h-157v480z" />
    <glyph glyph-name="uni0490" unicode="&#x490;" horiz-adv-x="419" 
d="M81 674h291l16 118h37l-11 -158h-285v-634h-48v674z" />
    </font>
</defs>
</svg>
