<?xml version="1.0" standalone="no"?>
<!DOCTYPE svg PUBLIC "-//W3C//DTD SVG 1.1//EN" "http://www.w3.org/Graphics/SVG/1.1/DTD/svg11.dtd" >
<svg xmlns="http://www.w3.org/2000/svg" xmlns:xlink="http://www.w3.org/1999/xlink" version="1.1">
<metadata>
Created by FontForge 20190801 at Thu Dec 22 16:09:27 2022
 By root
Copyright (c) 2014 by Mattox Shuler. All rights reserved.
</metadata>
<defs>
<font id="Industry-Medium" horiz-adv-x="575" >
  <font-face 
    font-family="Industry Test Medium"
    font-weight="500"
    font-stretch="normal"
    units-per-em="1000"
    panose-1="0 0 6 0 0 0 0 0 0 0"
    ascent="800"
    descent="-200"
    x-height="540"
    cap-height="700"
    bbox="-34 -171 893 730"
    underline-thickness="50"
    underline-position="-100"
    stemh="88"
    stemv="96"
    unicode-range="U+0020-007A"
  />
<missing-glyph horiz-adv-x="517" 
 />
    <glyph glyph-name=".notdef" horiz-adv-x="517" 
 />
    <glyph glyph-name="A" unicode="A" horiz-adv-x="660" 
d="M466 191h-277l-64 -191h-100l242 700h125l242 -700h-104zM437 279l-110 328l-109 -328h219z" />
    <glyph glyph-name="B" unicode="B" horiz-adv-x="646" 
d="M90 700h346c96 0 141 -45 141 -187c0 -99 -23 -133 -66 -152c51 -18 74 -55 74 -164c0 -152 -45 -197 -141 -197h-354v700zM186 403h239c40 0 55 15 55 105s-15 105 -55 105h-239v-210zM186 87h247c40 0 55 15 55 116s-15 116 -55 116h-247v-232z" />
    <glyph glyph-name="C" unicode="C" horiz-adv-x="629" 
d="M429 0h-216c-95 0 -140 48 -140 140v420c0 95 45 140 140 140h216c95 0 140 -45 140 -140v-89h-96v86c0 40 -15 55 -55 55h-194c-40 0 -55 -15 -55 -55v-414c0 -40 15 -55 55 -55h194c40 0 55 15 55 55v86h96v-89c0 -92 -45 -140 -140 -140z" />
    <glyph glyph-name="D" unicode="D" horiz-adv-x="663" 
d="M90 700h360c95 0 140 -45 140 -140v-420c0 -95 -45 -140 -140 -140h-360v700zM186 88h254c39 0 54 15 54 55v414c0 40 -15 55 -54 55h-254v-524z" />
    <glyph glyph-name="E" unicode="E" horiz-adv-x="595" 
d="M90 700h452v-88h-356v-210h297v-88h-297v-226h356v-88h-452v700z" />
    <glyph glyph-name="F" unicode="F" horiz-adv-x="578" 
d="M90 0v700h452v-88h-356v-218h297v-87h-297v-307h-96z" />
    <glyph glyph-name="G" unicode="G" horiz-adv-x="647" 
d="M481 485v72c0 40 -15 55 -55 55h-202c-40 0 -55 -15 -55 -55v-414c0 -40 15 -55 55 -55h202c40 0 55 15 55 55v142h-166v86h262v-231c0 -95 -45 -140 -140 -140h-224c-95 0 -140 45 -140 140v420c0 95 45 140 140 140h224c95 0 140 -45 140 -140v-75h-96z" />
    <glyph glyph-name="H" unicode="H" horiz-adv-x="694" 
d="M90 0v700h96v-298h321v298h96v-700h-96v314h-321v-314h-96z" />
    <glyph glyph-name="I" unicode="I" horiz-adv-x="277" 
d="M90 0v700h96v-700h-96z" />
    <glyph glyph-name="J" unicode="J" horiz-adv-x="569" 
d="M488 700v-560c0 -95 -45 -140 -140 -140h-172c-95 0 -140 45 -140 140v127h96v-124c0 -40 15 -55 55 -55h151c39 0 54 15 54 55v557h96z" />
    <glyph glyph-name="K" unicode="K" horiz-adv-x="643" 
d="M532 0l-212 346l-135 -157v-189h-95v700h95v-383l323 383h116l-240 -280l258 -420h-110z" />
    <glyph glyph-name="L" unicode="L" horiz-adv-x="554" 
d="M90 700h96v-612h331v-88h-427v700z" />
    <glyph glyph-name="M" unicode="M" horiz-adv-x="841" 
d="M751 700v-700h-94v544l-199 -446h-78l-199 446v-544h-91v700h113l217 -479l218 479h113z" />
    <glyph glyph-name="N" unicode="N" horiz-adv-x="710" 
d="M527 700h92v-700h-96l-341 556v-556h-92v700h103l334 -545v545z" />
    <glyph glyph-name="O" unicode="O" horiz-adv-x="658" 
d="M446 0h-233c-95 0 -140 45 -140 140v420c0 95 45 140 140 140h233c95 0 140 -45 140 -140v-420c0 -95 -45 -140 -140 -140zM169 557v-414c0 -40 15 -55 55 -55h211c40 0 55 15 55 55v414c0 40 -15 55 -55 55h-211c-40 0 -55 -15 -55 -55z" />
    <glyph glyph-name="P" unicode="P" horiz-adv-x="630" 
d="M90 700h351c93 0 140 -48 140 -140v-161c0 -92 -47 -140 -140 -140h-255v-259h-96v700zM186 347h245c36 0 54 19 54 55v155c0 37 -18 55 -54 55h-245v-265z" />
    <glyph glyph-name="Q" unicode="Q" horiz-adv-x="654" 
d="M213 700h229c95 0 140 -45 140 -140v-420c0 -95 -45 -140 -140 -140h-66v-127h-96v127h-67c-95 0 -140 45 -140 140v420c0 95 45 140 140 140zM486 143v414c0 40 -15 55 -55 55h-207c-40 0 -55 -15 -55 -55v-414c0 -40 15 -55 55 -55h207c40 0 55 15 55 55z" />
    <glyph glyph-name="R" unicode="R" horiz-adv-x="654" 
d="M602 0h-105l-142 275h-169v-275h-96v700h350c95 0 140 -45 140 -140v-144c0 -88 -39 -133 -121 -139zM186 362h244c39 0 54 15 54 54v142c0 40 -15 55 -54 55h-244v-251z" />
    <glyph glyph-name="S" unicode="S" horiz-adv-x="623" 
d="M454 491v70c0 39 -15 54 -55 54h-181c-40 0 -55 -15 -55 -54v-73c0 -43 18 -56 59 -65l193 -44c81 -18 144 -43 144 -143v-96c0 -95 -45 -140 -140 -140h-214c-95 0 -140 45 -140 140v77h95v-78c0 -39 15 -54 54 -54h194c40 0 55 15 55 54v84c0 43 -18 56 -59 66l-193 43
c-81 18 -144 43 -144 143v85c0 95 45 140 140 140h201c95 0 140 -45 140 -140v-69h-94z" />
    <glyph glyph-name="T" unicode="T" horiz-adv-x="569" 
d="M539 613h-206v-613h-96v613h-207v87h509v-87z" />
    <glyph glyph-name="U" unicode="U" horiz-adv-x="663" 
d="M582 700v-560c0 -95 -45 -140 -140 -140h-221c-95 0 -140 45 -140 140v560h96v-557c0 -40 15 -55 55 -55h200c39 0 54 15 54 55v557h96z" />
    <glyph glyph-name="V" unicode="V" horiz-adv-x="629" 
d="M603 700l-233 -700h-111l-233 700h105l184 -594l187 594h101z" />
    <glyph glyph-name="W" unicode="W" horiz-adv-x="919" 
d="M708 0h-101l-146 543l-146 -543h-105l-184 700h102l136 -577l155 577h84l155 -577l136 577h99z" />
    <glyph glyph-name="X" unicode="X" horiz-adv-x="620" 
d="M306 278l-181 -278h-102l231 357l-224 343h108l175 -266l174 266h102l-226 -343l233 -357h-108z" />
    <glyph glyph-name="Y" unicode="Y" horiz-adv-x="605" 
d="M351 0h-96v245l-242 455h104l187 -357l187 357h102l-242 -455v-245z" />
    <glyph glyph-name="Z" unicode="Z" horiz-adv-x="597" 
d="M55 71l371 543h-354v86h470v-71l-371 -543h369v-86h-485v71z" />
    <glyph glyph-name="a" unicode="a" horiz-adv-x="550" 
d="M204 540h143c91 0 134 -43 134 -134v-406h-91v77c-42 -52 -87 -81 -185 -81c-110 0 -153 46 -153 158c0 113 47 147 137 157c48 5 120 12 201 15v82c0 39 -15 54 -54 54h-121c-39 0 -54 -15 -54 -54v-20h-91v18c0 91 43 134 134 134zM390 266l-189 -25
c-42 -6 -58 -18 -58 -82c0 -65 15 -84 72 -84c81 0 122 22 175 58v133z" />
    <glyph glyph-name="b" unicode="b" 
d="M355 544c115 0 158 -43 158 -137v-274c0 -94 -43 -137 -158 -137c-103 0 -142 33 -190 80v-76h-91v730h91v-266c48 47 87 80 190 80zM422 136v268c0 42 -16 57 -77 57c-86 0 -127 -18 -180 -54v-274c53 -36 94 -54 180 -54c61 0 77 15 77 57z" />
    <glyph glyph-name="c" unicode="c" horiz-adv-x="529" 
d="M196 540h148c91 0 134 -43 134 -134v-47h-91v46c0 38 -15 54 -54 54h-126c-38 0 -54 -16 -54 -54v-270c0 -38 16 -54 54 -54h126c39 0 54 16 54 54v46h91v-47c0 -91 -43 -134 -134 -134h-148c-91 0 -134 43 -134 134v272c0 91 43 134 134 134z" />
    <glyph glyph-name="d" unicode="d" 
d="M220 544c103 0 143 -33 190 -80v266h91v-730h-91v76c-47 -47 -87 -80 -190 -80c-115 0 -158 43 -158 137v274c0 94 43 137 158 137zM153 404v-268c0 -42 15 -57 77 -57c86 0 127 18 180 54v274c-53 36 -94 54 -180 54c-62 0 -77 -15 -77 -57z" />
    <glyph glyph-name="e" unicode="e" horiz-adv-x="545" 
d="M153 248v-117c0 -38 16 -54 54 -54h135c38 0 54 16 54 54v40h91v-37c0 -91 -43 -134 -134 -134h-157c-91 0 -134 43 -134 134v272c0 91 43 134 134 134h157c91 0 134 -43 134 -134v-158h-334zM342 463h-135c-38 0 -54 -16 -54 -54v-93h243v93c0 38 -15 54 -54 54z" />
    <glyph glyph-name="f" unicode="f" horiz-adv-x="374" 
d="M343 655h-80c-38 0 -54 -15 -54 -54v-61h144v-77h-144v-463h-91v463h-89v77h90v56c0 91 42 134 134 134h90v-75z" />
    <glyph glyph-name="g" unicode="g" 
d="M501 540v-566c0 -91 -43 -134 -134 -134h-243v77h232c39 0 54 15 54 54v122c-47 -46 -87 -80 -190 -80c-115 0 -158 43 -158 138v256c0 94 43 137 158 137c103 0 143 -33 190 -80v76h91zM153 407v-257c0 -39 15 -54 77 -54c86 0 127 19 180 54v257c-53 36 -94 54 -180 54
c-62 0 -77 -15 -77 -54z" />
    <glyph glyph-name="h" unicode="h" horiz-adv-x="568" 
d="M165 730v-265c48 47 87 80 184 80c108 0 151 -43 151 -135v-410h-91v407c0 40 -15 55 -70 55c-80 0 -121 -18 -174 -54v-408h-91v730h91z" />
    <glyph glyph-name="i" unicode="i" horiz-adv-x="247" 
d="M174 615h-101v102h101v-102zM169 540v-540h-91v540h91z" />
    <glyph glyph-name="j" unicode="j" horiz-adv-x="247" 
d="M174 615h-101v102h101v-102zM169 540v-563c0 -84 -46 -116 -134 -134l-69 -14v64l59 25c29 11 52 25 52 58v564h92z" />
    <glyph glyph-name="k" unicode="k" horiz-adv-x="526" 
d="M411 0l-144 266l-102 -121v-145h-91v730h91v-468l222 278h110l-173 -206l187 -334h-100z" />
    <glyph glyph-name="l" unicode="l" horiz-adv-x="245" 
d="M77 730h91v-730h-91v730z" />
    <glyph glyph-name="m" unicode="m" horiz-adv-x="867" 
d="M655 546c100 0 143 -43 143 -135v-411h-91v408c0 40 -16 55 -62 55c-69 0 -111 -19 -163 -53v-410h-92l1 6v402c0 40 -16 55 -62 55c-70 0 -111 -18 -164 -54v-409h-91v540h91v-74c48 47 87 80 174 80c79 0 123 -27 137 -84c46 47 95 84 179 84z" />
    <glyph glyph-name="n" unicode="n" horiz-adv-x="568" 
d="M165 540v-75c48 47 87 80 184 80c108 0 151 -43 151 -135v-410h-91v407c0 40 -15 55 -70 55c-80 0 -121 -18 -174 -54v-408h-91v540h91z" />
    <glyph glyph-name="o" unicode="o" horiz-adv-x="556" 
d="M196 540h164c91 0 134 -43 134 -134v-272c0 -91 -43 -134 -134 -134h-164c-91 0 -134 43 -134 134v272c0 91 43 134 134 134zM402 135v270c0 38 -15 54 -54 54h-141c-39 0 -54 -16 -54 -54v-270c0 -38 15 -54 54 -54h141c39 0 54 16 54 54z" />
    <glyph glyph-name="p" unicode="p" 
d="M355 544c115 0 158 -43 158 -137v-274c0 -94 -43 -137 -158 -137c-103 0 -142 33 -190 80v-236h-91v700h91v-76c48 47 87 80 190 80zM422 136v268c0 42 -16 57 -77 57c-86 0 -127 -18 -180 -54v-274c53 -36 94 -54 180 -54c61 0 77 15 77 57z" />
    <glyph glyph-name="q" unicode="q" 
d="M220 544c103 0 143 -33 190 -80v76h91v-700h-91v236c-47 -47 -87 -80 -190 -80c-115 0 -158 43 -158 137v274c0 94 43 137 158 137zM153 404v-268c0 -42 15 -57 77 -57c86 0 127 18 180 54v274c-53 36 -94 54 -180 54c-62 0 -77 -15 -77 -57z" />
    <glyph glyph-name="r" unicode="r" horiz-adv-x="397" 
d="M371 453h-48c-64 0 -109 -23 -158 -53v-400h-91v540h91v-80c44 43 87 80 166 80h40v-87z" />
    <glyph glyph-name="s" unicode="s" horiz-adv-x="518" 
d="M367 381v21c0 45 -15 61 -54 61h-112c-39 0 -54 -16 -54 -70c0 -49 14 -58 51 -64l154 -25c81 -14 117 -44 117 -143c0 -118 -43 -161 -134 -161h-152c-91 0 -134 43 -134 147v21h89v-23c0 -52 16 -68 54 -68h132c39 0 54 16 54 78c0 57 -14 66 -51 72l-154 25
c-81 14 -117 44 -117 135c0 110 43 153 134 153h132c91 0 134 -43 134 -141v-18h-89z" />
    <glyph glyph-name="t" unicode="t" horiz-adv-x="359" 
d="M196 463v-330c0 -38 16 -54 54 -54h75v-79h-86c-91 0 -134 43 -134 134v329h-80v77h81v130h90v-130h129v-77h-129z" />
    <glyph glyph-name="u" unicode="u" horiz-adv-x="568" 
d="M404 0v75c-48 -47 -87 -80 -184 -80c-108 0 -151 43 -151 135v410h91v-407c0 -40 15 -55 70 -55c80 0 121 18 174 54v408h91v-540h-91z" />
    <glyph glyph-name="v" unicode="v" horiz-adv-x="511" 
d="M492 540l-183 -540h-108l-183 540h97l142 -461l142 461h93z" />
    <glyph glyph-name="w" unicode="w" horiz-adv-x="759" 
d="M596 0h-98l-116 427l-116 -427h-100l-148 540h96l102 -444l121 444h89l121 -444l102 444h92z" />
    <glyph glyph-name="x" unicode="x" horiz-adv-x="509" 
d="M250 205l-138 -205h-95l186 273l-184 267h101l135 -200l135 200h94l-182 -268l188 -272h-100z" />
    <glyph glyph-name="y" unicode="y" horiz-adv-x="517" 
d="M499 540l-257 -700h-87l57 160l-194 540h96l144 -435l148 435h93z" />
    <glyph glyph-name="z" unicode="z" horiz-adv-x="466" 
d="M37 61l277 402h-265v77h377v-60l-278 -403h277v-77h-388v61z" />
    <glyph glyph-name="zero" unicode="0" horiz-adv-x="639" 
d="M427 0h-214c-95 0 -140 45 -140 140v420c0 95 45 140 140 140h214c95 0 140 -45 140 -140v-420c0 -95 -45 -140 -140 -140zM169 557v-414c0 -40 15 -55 55 -55h192c40 0 55 15 55 55v414c0 40 -15 55 -55 55h-192c-40 0 -55 -15 -55 -55z" />
    <glyph glyph-name="one" unicode="1" horiz-adv-x="386" 
d="M188 0v601l-141 -50v85l158 64h79v-700h-96z" />
    <glyph glyph-name="two" unicode="2" horiz-adv-x="599" 
d="M170 491v66c0 40 15 55 55 55h159c40 0 55 -15 55 -55v-81c0 -29 -23 -41 -62 -59l-167 -76c-94 -43 -144 -68 -144 -144v-197h471v88h-375v98c0 29 23 41 61 59l168 76c93 43 144 68 144 144v95c0 95 -45 140 -140 140h-180c-95 0 -140 -45 -140 -140v-69h95z" />
    <glyph glyph-name="three" unicode="3" horiz-adv-x="601" 
d="M151 205v-9c0 -94 15 -109 55 -109h184c39 0 54 22 54 115s-15 115 -54 115h-180v86h172c39 0 54 15 54 104c0 91 -15 106 -54 106h-168c-40 0 -55 -15 -55 -106v-12h-96v14c0 146 45 191 140 191h189c95 0 140 -45 140 -187c0 -103 -23 -135 -65 -154
c50 -16 73 -51 73 -163c0 -151 -45 -196 -140 -196h-205c-95 0 -140 45 -140 192v13h96z" />
    <glyph glyph-name="four" unicode="4" horiz-adv-x="624" 
d="M593 168h-104v-168h-95v168h-346l-17 77l359 455h99v-445h104v-87zM147 255h248v317z" />
    <glyph glyph-name="five" unicode="5" horiz-adv-x="606" 
d="M174 612v-234c44 46 87 80 196 80c125 0 170 -45 170 -140v-177c0 -95 -46 -141 -141 -141h-188c-95 0 -140 45 -140 140v65h96v-62c0 -40 15 -55 55 -55h167c40 0 55 15 55 55v174c0 40 -15 55 -83 55c-91 0 -138 -22 -187 -53l-96 27v354h449v-88h-353z" />
    <glyph glyph-name="six" unicode="6" horiz-adv-x="616" 
d="M441 501v56c0 36 -19 55 -55 55h-162c-36 0 -55 -19 -55 -55v-198c43 45 89 80 202 80c130 0 175 -45 175 -140v-159c0 -95 -45 -140 -140 -140h-193c-95 0 -140 45 -140 140v420c0 95 45 140 140 140h184c95 0 140 -45 140 -140v-59h-96zM169 299v-156
c0 -40 15 -55 55 -55h171c40 0 55 15 55 55v154c0 40 -15 55 -88 55c-96 0 -144 -22 -193 -53z" />
    <glyph glyph-name="seven" unicode="7" horiz-adv-x="559" 
d="M523 634l-305 -634h-103l298 613h-379v87h489v-66z" />
    <glyph glyph-name="eight" unicode="8" horiz-adv-x="617" 
d="M484 359c49 -16 73 -51 73 -163c0 -151 -45 -196 -140 -196h-216c-95 0 -140 45 -140 196c0 112 24 147 73 163c-41 19 -65 51 -65 154c0 142 45 187 140 187h200c95 0 140 -45 140 -187c0 -103 -24 -135 -65 -154zM398 613h-178c-40 0 -55 -15 -55 -106
c0 -89 15 -104 55 -104h178c40 0 55 15 55 104c0 91 -15 106 -55 106zM212 87h194c40 0 55 22 55 115s-15 115 -55 115h-194c-40 0 -55 -22 -55 -115s15 -115 55 -115z" />
    <glyph glyph-name="nine" unicode="9" horiz-adv-x="616" 
d="M176 199v-56c0 -39 16 -55 55 -55h162c39 0 55 16 55 55v205c-43 -46 -89 -80 -202 -80c-130 0 -175 45 -175 140v152c0 95 45 140 140 140h193c95 0 140 -45 140 -140v-420c0 -95 -45 -140 -140 -140h-184c-95 0 -140 45 -140 140v59h96zM448 407v150
c0 40 -15 55 -55 55h-171c-40 0 -55 -15 -55 -55v-148c0 -40 15 -55 88 -55c96 0 144 22 193 53z" />
    <glyph glyph-name="comma" unicode="," horiz-adv-x="233" 
d="M175 120v-85c0 -36 -8 -50 -41 -98l-47 -64h-45l68 127h-52v120h117z" />
    <glyph glyph-name="period" unicode="." horiz-adv-x="233" 
d="M175 0h-117v120h117v-120z" />
    <glyph glyph-name="hyphen" unicode="-" horiz-adv-x="430" 
d="M371 374v-88h-311v88h311z" />
    <glyph glyph-name="space" unicode=" " horiz-adv-x="240" 
 />
    </font>
</defs>
</svg>
